rarbg torrents
Catalog Top 10

Home
Movies
XXX
TV Shows
Games
Music
Anime
Apps
Doc
Other
Non XXX

A Nightmare on Elm Street 2010 DVDRip XviD-Larceny (SAFCuk009+Fabreezy)

Torrent: A Nightmare on Elm Street 2010 DVDRip XviD-Larceny (SAFCuk009+Fabreezy)
VPN:
Downloading torrents is getting riskier every day. Use a VPN to make yourself hidden while downloading torrents.
By using a VPN , your ISP and Government Agencies will not be able to spy on you, neither would they be able to track your online activity!
Poster:
A Nightmare on Elm Street 2010 DVDRip XviD-Larceny (SAFCuk009+Fabreezy)
Others:
Codec Name S. L. Size

 

Description:





While at the Springwood Diner with his girlfriend, Kris Fowles (Katie Cassidy), Dean Russell (Kellan Lutz) falls asleep at the table and meets a man covered in burn scars, wearing a red and green sweater and a clawed glove on his hand. The burned man cuts Dean’s throat in the dream, but in reality it appears that Dean is cutting his own throat as friend and waitress Nancy Holbrook (Rooney Mara) looks on with Kris. At Dean’s funeral, Kris sees a photograph of her and Dean as children, but cannot recall ever knowing Dean before high school.



www.imdb.com/title/tt1179056/




Video
ID : 0
Format : MPEG-4 Visual
Format profile : Advanced [email protected]
Format settings, BVOP : Yes
Format settings, QPel : No
Format settings, GMC : No warppoints
Format settings, Matrix : Default (H.263)
Codec ID : XVID
Codec ID/Hint : XviD
Duration : 1h 35mn
Bit rate : 882 Kbps
Width : 576 pixels
Height : 240 pixels
Display aspect ratio : 2.40:1
Frame rate : 23.976 fps
Resolution : 8 bits
Colorimetry : 4:2:0
Scan type : Progressive
Bits/(Pixel*Frame) : 0.266
Stream size : 602 MiB (86%)
Writing library : XviD 1.2.1 (UTC 2008-12-04)

Audio
ID : 1
Format : MPEG Audio
Format version : Version 1
Format profile : Layer 3
Mode : Joint stereo
Format_Settings_ModeExtension : MS Stereo
Codec ID : 55
Codec ID/Hint : MP3
Duration : 1h 35mn
Bit rate mode : Variable
Bit rate : 126 Kbps
Nominal bit rate : 128 Kbps
Channel(s) : 2 channels
Sampling rate : 48.0 KHz
Stream size : 85.9 MiB (12%)
Alignment : Aligned on interleaves
Interleave, duration : 24 ms (0.58 video frame)
Interleave, preload duration : 146 ms
Writing library : LAME3.90.
Encoding settings : -m j -V 4 -q 2 -lowpass 17.6 --abr 128











========================================================
uploaded through server for fast speedz

========================================================

Downloads: 4808
Category: Movies/Divx/Xvid
Size: 710.3 MB
Show Files »
files
Added: 2011-06-21 18:27:05
Language: English
Title: A Nightmare on Elm Street
Rating: 55
Genres: HorrorMysteryThriller
Year: 2010
Summery: The film that brings back horror icon Freddy Krueger as a darker and more sinister character than ever before. While Freddy is on the prowl a group of teenagers being stalked soon learn they all have a common factor making them targets for this twisted killer.
Peers: Seeders : 0 , Leechers : 1
Release name: A Nightmare on Elm Street 2010 DVDRip XviD-Larceny (SAFCuk009+Fabreezy)
Trackers:

http://inferno.demonoid.com:3403/announce

http://tracker.publicbt.com/announce

http://exodus.1337x.org/announce

http://genesis.1337x.org:1337/announce

http://nemesis.1337x.org/announce

udp://tracker.1337x.org:80/announce





By using this site you agree to and accept our user agreement. If you havent read the user agreement please do so here