rarbg torrents
Catalog Top 10

Home
Movies
XXX
TV Shows
Games
Music
Anime
Apps
Doc
Other
Non XXX

Art of Persia S01E03 (1280x720p HD, 50fps, soft Eng subs)

Torrent: Art of Persia S01E03 (1280x720p HD, 50fps, soft Eng subs)
VPN:
Downloading torrents is getting riskier every day. Use a VPN to make yourself hidden while downloading torrents.
By using a VPN , your ISP and Government Agencies will not be able to spy on you, neither would they be able to track your online activity!
Description:

Art of Persia S01E03 (1280x720p HD, 50fps, soft Eng subs)

In the last episode, Samira Ahmed travels to the crumbling ruins of an ancient walled city and goes back to when Persia faced her gravest threat - Genghis Khan. But from the death and destruction there emerged a golden age of Persian poetry and art. / / In the fabled city of Isfahan, Samira encounters the dynasty of shahs that succeeded the Mongols - the Safavids, who gave Iran a powerful new identity through Shia Islam and carved its message in stone, brick and tile. / / Finally, Samira travels to Persepolis to tell the story of Iran's last shah and his ill-fated attempt to link his dynasty to Persia's ancient kings, with momentous consequences for the world.

First broadcast: 29 June 2020
Duration: 1 hour

Torrent dead? Request reseed at torrentgalaxy.org - or ask at elsonroa at tutanota.com

Media info:-
General
Format : MPEG-4
Format profile : Base Media
Codec ID : isom (isom/iso2/avc1/mp41)
File size : 2.09 GiB
Duration : 59mn 14s
Overall bit rate : 5 055 Kbps

Video
ID : 1
Format : AVC
Format/Info : Advanced Video Codec
Format profile : [email protected]
Format settings, CABAC : Yes
Format settings, ReFrames : 4 frames
Codec ID : avc1
Codec ID/Info : Advanced Video Coding
Duration : 59mn 14s
Bit rate : 4 919 Kbps
Width : 1 280 pixels
Height : 720 pixels
Display aspect ratio : 16:9
Frame rate mode : Constant
Frame rate : 50.000 fps
Color space : YUV
Chroma subsampling : 4:2:0
Bit depth : 8 bits
Scan type : Progressive
Bits/(Pixel*Frame) : 0.107
Stream size : 2.04 GiB (97%)
Encoded date : UTC 1904-01-01 00:00:00
Tagged date : UTC 1904-01-01 00:00:00
Color range : Limited
Color primaries : BT.709
Transfer characteristics : BT.709
Matrix coefficients : BT.709

Audio
ID : 2
Format : AAC
Format/Info : Advanced Audio Codec
Format profile : LC
Codec ID : 40
Duration : 59mn 14s
Bit rate mode : Constant
Bit rate : 128 Kbps
Channel(s) : 2 channels
Channel positions : Front: L R
Sampling rate : 48.0 KHz
Frame rate : 46.875 fps (1024 spf)
Compression mode : Lossy
Stream size : 54.2 MiB (3%)
Language : English

Downloads: 59
Category: TV/HD
Size: 2.1 GB
Show Files »
files
Added: 2020-06-30 11:32:45
Language: English
Peers: Seeders : 9 , Leechers : 3
Release name: Art of Persia S01E03 (1280x720p HD, 50fps, soft Eng subs)
Trackers:

udp://explodie.org:6969/announce

udp://tracker.torrent.eu.org:451/announce

udp://tracker.uw0.xyz:6969/announce

https://tracker.nanoha.org:443/announce

udp://retracker.akado-ural.ru:80/announce





By using this site you agree to and accept our user agreement. If you havent read the user agreement please do so here