rarbg torrents
Catalog Top 10

Home
Movies
XXX
TV Shows
Games
Music
Anime
Apps
Doc
Other
Non XXX

{Desibits.Info} Jo.Jeeta.Wohi.Sikandar.1992.1CD.Hindi.Original.DVDRip.XviD-GoldieJ

Torrent: {Desibits.Info} Jo.Jeeta.Wohi.Sikandar.1992.1CD.Hindi.Original.DVDRip.XviD-GoldieJ
VPN:
Downloading torrents is getting riskier every day. Use a VPN to make yourself hidden while downloading torrents.
By using a VPN , your ISP and Government Agencies will not be able to spy on you, neither would they be able to track your online activity!
Description:

[color='fuchsia'][size='large']Jo.Jeeta.Wohi.Sikandar.1992.1CD.Hindi.Original.DVD Rip.XviD-GoldieJ[/size][/color]


Quote:

Overview

Director:Mansoor Khan
Writers:Nasir Hussain (dialogue)
Mansoor Khan (screenplay)
Release Date:22 May 1992 (India)
Tagline:Welcome To Their Lives, You Will Never Forget

Cast

Aamir Khan...Sanjaylal Sharma
Ayesha Jhulka...Anjali
Deepak Tijori...Shekhar Malhotra (as Depak Tijori)
Pooja Bedi...Devika
Kulbhushan Kharbanda... Ramlal Sharma
Mamik... Ratanlal Sharma
Kiran Zaveri ... Kalpana
Ahmed Khan... Girdhari - Anjali's Father
Ravindra Kapoor... Shakur (as Ravinder Kapoor)
Deb Mukherjee... Rajput's Coach (as Debu Mukerjee)
Aditya Lakhia... Maksood


Quote:

DvDRiP Info

Format : MPEG-4
Format profile : Base Media
Codec ID : isom
File size : 700 MiB
Duration : 2h 39mn
Overall bit rate : 615 Kbps

Video
ID : 1
Format : AVC
Format/Info : Advanced Video Codec
Format profile : [email protected]
Format settings, CABAC : Yes
Format settings, ReFrames : 6 frames
Codec ID : avc1
Codec ID/Info : Advanced Video Coding
Duration : 2h 39mn
Bit rate mode : Variable
Bit rate : 486 Kbps
Maximum bit rate : 1 320 Kbps
Width : 640 pixels
Height : 336 pixels
Display aspect ratio : 1.905
Frame rate mode : Constant
Frame rate : 29.970 fps
Resolution : 24 bits
Colorimetry : 4:2:0
Scan type : Progressive
Bits/(Pixel*Frame) : 0.075
Stream size : 552 MiB (79%)
Title : Video
Writing library : x264 core 46 svn-516

Audio
ID : 2
Format : AAC
Format/Info : Advanced Audio Codec
Format version : Version 4
Format profile : LC
Format settings, SBR : No
Codec ID : 40
Duration : 2h 39mn
Bit rate mode : Variable
Bit rate : 125 Kbps
Maximum bit rate : 148 Kbps
Channel(s) : 2 channels
Channel positions : L R
Sampling rate : 48.0 KHz
Resolution : 16 bits
Stream size : 143 MiB (20%)
Title : Hindi
Language : Hindi








TRACKED BY DESIBITS.INFO<<<<<<<<<<<<<<<<<<<<<<<<FOR MORE HIGH SPEED DOWNLOADS , VISIT DESIBITS.INFO

Downloads: 3875
Category: Movies/Divx/Xvid
Size: 700.5 MB
Show Files »
files
Added: 2011-06-21 18:27:37
Language: Hindi
Peers: Seeders : 0 , Leechers : 0
Release name: {Desibits.Info} Jo.Jeeta.Wohi.Sikandar.1992.1CD.Hindi.Original.DVDRip.XviD-GoldieJ
Trackers:

http://www.desibits.info/announce.php?pid=f3234ea3eca1929b27f296c8631f6422

http://genesis.1337x.org:1337/announce

http://tracker.publicbt.com:80/announce

http://tracker.openbittorrent.com:80/announce

udp://tracker.1337x.org:80/announce





By using this site you agree to and accept our user agreement. If you havent read the user agreement please do so here