rarbg torrents
Catalog Top 10

Home
Movies
XXX
TV Shows
Games
Music
Anime
Apps
Doc
Other
Non XXX

Drop.Dead.Gorgeous.2010.DvDRip.XviD.Ac3.Feel-Free

Torrent: Drop.Dead.Gorgeous.2010.DvDRip.XviD.Ac3.Feel-Free
VPN:
Downloading torrents is getting riskier every day. Use a VPN to make yourself hidden while downloading torrents.
By using a VPN , your ISP and Government Agencies will not be able to spy on you, neither would they be able to track your online activity!
Poster:
Drop.Dead.Gorgeous.2010.DvDRip.XviD.Ac3.Feel-Free
Description:



Language: English
Genre:Comedy | Drama
IMDB:http://www.imdb.com/title/tt1199453/
Source:DVD


General
Complete name :Drop.Dead.Gorgeous.2010.DvDRip.XviD.Ac3.Feel-Free
Format : AVI
Format/Info : Audio Video Interleave
File size : 1.45 GiB
Duration : 1h 32mn
Overall bit rate : 2 243 Kbps
Video #0
Muxing mode : Packed bitstream
Codec ID : XVID
Codec ID/Hint : XviD
Duration : 1h 32mn
Bit rate : 1 786 Kbps
Width : 720 pixels
Height : 384 pixels
Display aspect ratio : 1.875
Frame rate : 25.000 fps
Resolution : 24 bits
Colorimetry : 4:2:0
Scan type : Progressive
Bits/(Pixel*Frame) : 0.258
Stream size : 1.16 GiB (80%)
Writing library : XviD 1.2.1 (UTC 2008-12-04)
Audio #1
ID : 1
Format : AC-3
Format/Info : Audio Coding 3
Codec ID : 2000
Duration : 1h 32mn
Bit rate mode : Constant
Bit rate : 448 Kbps
Channel(s) : 6 channels
Channel positions : Front: L C R, Surround: L R, LFE
Sampling rate : 48.0 KHz
Stream size : 297 MiB (20%)
Alignment : Split accross interleaves
Interleave, duration : 40 ms (1.00 video frame)
Interleave, preload duration : 500 ms

TRAILER:





Downloads: 1734
Category: Movies/Divx/Xvid
Size: 1.5 GB
Show Files ยป
files
Added: 2011-06-21 18:27:29
Language: English
Title: Drop Dead Gorgeous
Rating: 40
Genres: ComedyDocumentaryDrama
Year: 2010
Summery: An aspiring model, Cynthia, becomes the focus of a documentary when she is chosen as the face for the world's biggest fashion designer, Claudio. Cynthia accidentally overdoses and with deadlines looming they decide to use her corpse to continue filming.
Peers: Seeders : 1 , Leechers : 1
Release name: Drop.Dead.Gorgeous.2010.DvDRip.XviD.Ac3.Feel-Free
Trackers:

http://exodus.1337x.org/announce

http://tracker.publicbt.com/announce

http://nemesis.1337x.org/announce

http://tracker.publicbt.com/announce

http://genesis.1337x.org:1337/announce

http://denis.stalker.h3q.com/announce

http://genesis.1337x.org:1337/announce

http://tracker.publicbt.com:80/announce

http://tracker.openbittorrent.com:80/announce

udp://tracker.1337x.org:80/announce





By using this site you agree to and accept our user agreement. If you havent read the user agreement please do so here