rarbg torrents
Catalog Top 10

Home
Movies
XXX
TV Shows
Games
Music
Anime
Apps
Doc
Other
Non XXX

House (1986)

Torrent: House (1986)
VPN:
Downloading torrents is getting riskier every day. Use a VPN to make yourself hidden while downloading torrents.
By using a VPN , your ISP and Government Agencies will not be able to spy on you, neither would they be able to track your online activity!
Description:



Video
ID : 0
Format : MPEG-4 Visual
Format profile : Advanced [email protected]
Format settings, BVOP : Yes
Format settings, QPel : No
Format settings, GMC : No warppoints
Format settings, Matrix : Custom
Codec ID : XVID
Codec ID/Hint : XviD
Duration : 1h 28mn
Bit rate : 976 Kbps
Width : 640 pixels
Height : 336 pixels
Display aspect ratio : 1.905
Frame rate : 25.000 fps
Color space : YUV
Chroma subsampling : 4:2:0
Bit depth : 8 bits
Scan type : Progressive
Bits/(Pixel*Frame) : 0.182
Stream size : 616 MiB (88%)
Writing library : XviD 1.2.1 (UTC 2008-12-04)

Audio
ID : 1
Format : MPEG Audio
Format version : Version 1
Format profile : Layer 3
Mode : Joint stereo
Mode extension : MS Stereo
Codec ID : 55
Codec ID/Hint : MP3
Duration : 1h 28mn
Bit rate mode : Variable
Bit rate : 121 Kbps
Nominal bit rate : 128 Kbps
Channel(s) : 2 channels
Sampling rate : 48.0 KHz
Video delay : 216ms
Stream size : 76.1 MiB (11%)
Alignment : Split accross interleaves
Interleave, duration : 24 ms (0.60 video frame)
Interleave, preload duration : 999 ms
Writing library : LAME3.98r
Encoding settings : -m j -V 4 -q 2 -lowpass 17 --abr 128
Language : English

http://www.imdb.com/title/tt0091223/




Downloads: 1437
Category: Movies/Divx/Xvid
Size: 701 MB
Show Files »
files
Added: 2011-06-21 18:27:32
Language: English
Peers: Seeders : 2 , Leechers : 0
Release name: House (1986)
Trackers:

http://inferno.demonoid.com:3404/announce

http://tracker.openbittorrent.com/announce

http://exodus.1337x.org/announce

http://genesis.1337x.org:1337/announce

http://denis.stalker.h3q.com/announce

http://tracker.publicbt.com/announce

http://10.rarbg.com:80/announce

http://pow7.com:80/announce

udp://tracker.1337x.org:80/announce





By using this site you agree to and accept our user agreement. If you havent read the user agreement please do so here