rarbg torrents
Catalog Top 10

Home
Movies
XXX
TV Shows
Games
Music
Anime
Apps
Doc
Other
Non XXX

House 3 (1989)

Torrent: House 3 (1989)
VPN:
Downloading torrents is getting riskier every day. Use a VPN to make yourself hidden while downloading torrents.
By using a VPN , your ISP and Government Agencies will not be able to spy on you, neither would they be able to track your online activity!
Description:



Plot: Detective Lucas McCarthy finally apprehends "Meat Cleaver Max" and watches the electric chair execution from the audience. But killing Max Jenke only elevated him to another level of reality. Now Lucas' family is under attack, his sanity in question, and his house haunted. Aided by a disreputable college professor, can Lucas reclaim his mind, house, and family? Features Lance Henriksen as the Lucas McCarthy and Brion James as Max Jenke. One of the few movies featuring these actors as main characters.

Video
ID : 0
Format : MPEG-4 Visual
Format profile : Advanced [email protected]
Format settings, BVOP : Yes
Format settings, QPel : No
Format settings, GMC : No warppoints
Format settings, Matrix : Custom
Codec ID : XVID
Codec ID/Hint : XviD
Duration : 1h 30mn
Bit rate : 956 Kbps
Width : 672 pixels
Height : 352 pixels
Display aspect ratio : 1.909
Frame rate : 25.000 fps
Color space : YUV
Chroma subsampling : 4:2:0
Bit depth : 8 bits
Scan type : Progressive
Bits/(Pixel*Frame) : 0.162
Stream size : 617 MiB (88%)
Writing library : XviD 1.2.1 (UTC 2008-12-04)

Audio
ID : 1
Format : MPEG Audio
Format version : Version 1
Format profile : Layer 3
Mode : Joint stereo
Codec ID : 55
Codec ID/Hint : MP3
Duration : 1h 30mn
Bit rate mode : Variable
Bit rate : 117 Kbps
Nominal bit rate : 128 Kbps
Channel(s) : 2 channels
Sampling rate : 48.0 KHz
Video delay : 264ms
Stream size : 75.4 MiB (11%)
Alignment : Split accross interleaves
Interleave, duration : 24 ms (0.60 video frame)
Interleave, preload duration : 1120 ms
Writing library : LAME3.98r
Encoding settings : -m j -V 4 -q 2 -lowpass 17 --abr 128
Language : English




Downloads: 284
Category: Movies/Divx/Xvid
Size: 701 MB
Show Files »
files
Added: 2011-06-21 18:27:33
Language: English
Peers: Seeders : 0 , Leechers : 1
Release name: House 3 (1989)
Trackers:

http://inferno.demonoid.com:3404/announce

http://tracker.openbittorrent.com/announce

http://exodus.1337x.org/announce

http://genesis.1337x.org:1337/announce

http://10.rarbg.com:80/announce

http://tracker.publicbt.com/announce

http://pow7.com:80/announce

http://denis.stalker.h3q.com/announce

udp://tracker.1337x.org:80/announce





By using this site you agree to and accept our user agreement. If you havent read the user agreement please do so here