rarbg torrents
Catalog Top 10

Home
Movies
XXX
TV Shows
Games
Music
Anime
Apps
Doc
Other
Non XXX

Inside.the.Booby.XXX.DVDRIP [TDADevil]

Torrent: Inside.the.Booby.XXX.DVDRIP [TDADevil]
VPN:
Downloading torrents is getting riskier every day. Use a VPN to make yourself hidden while downloading torrents.
By using a VPN , your ISP and Government Agencies will not be able to spy on you, neither would they be able to track your online activity!
Description:








Video
ID : 0
Format : MPEG-4 Visual
Format profile : Advanced [email protected]
Format settings, BVOP : Yes
Format settings, QPel : No
Format settings, GMC : No warppoints
Format settings, Matrix : Default (MPEG)
Codec ID : XVID
Codec ID/Hint : XviD
Duration : 1h 33mn
Bit rate : 918 Kbps
Width : 576 pixels
Height : 320 pixels
Display aspect ratio : 16:9
Frame rate : 23.976 fps
Resolution : 8 bits
Colorimetry : 4:2:0
Scan type : Progressive
Bits/(Pixel*Frame) : 0.208
Stream size : 617 MiB (88%)
Writing library : XviD 1.2.1 (UTC 2008-12-04)

Audio
ID : 1
Format : MPEG Audio
Format version : Version 1
Format profile : Layer 3
Mode : Joint stereo
Format_Settings_ModeExtension : MS Stereo
Codec ID : 55
Codec ID/Hint : MP3
Duration : 1h 33mn
Bit rate mode : Variable
Bit rate : 113 Kbps
Minimum bit rate : 112 Kbps
Channel(s) : 2 channels
Sampling rate : 48.0 KHz
Stream size : 75.7 MiB (11%)
Alignment : Aligned on interleaves
Interleave, duration : 24 ms (0.58 video frame)
Interleave, preload duration : 165 ms

Downloads: 507
Category: XXX/Video
Size: 700.9 MB
Show Files »
files
Added: 2011-06-21 18:27:08
Language: English
Peers: Seeders : 0 , Leechers : 0
Release name: Inside.the.Booby.XXX.DVDRIP [TDADevil]
Trackers:

http://genesis.1337x.org:1337/announce

http://tracker.openbittorrent.com/announce

http://denis.stalker.h3q.com/announce

http://genesis.1337x.org:1337/announce

http://nemesis.1337x.org/announce

http://tracker.openbittorrent.com/announce

http://tracker.publicbt.com/announce

http://denis.stalker.h3q.com:6969/announce

http://denis.stalker.h3q.com:80/announce

http://thedesiadda.com:2710/yaeuzc6jkksgruo7g09g145rmj1dqloo/announce

http://tracker.istole.it:80/announce

http://11.rarbg.com:80/announce

http://9.rarbg.com:2710/announce

http://tracker.ex.ua:80/announce

http://tv.tracker.prq.to/announce

http://torrent-download.to:5869/announce

http://tpb.tracker.prq.to/announce

http://torrent-downloads.to:5869/announce

http://tv.tracker.prq.to/announce

http://tv.tracker.prq.to:80/announce

http://denis.stalker.h3q.com:6969/announce

http://tracker1.torrentum.pl:6969/announce

http://tracker.torrent-downloads.to:5869/announce

http://torrent-downloads.to:5869/announce

http://bt1.the9.com:6969/announce

http://exodus.1337x.org/announce

http://genesis.1337x.org:1337/announce

http://tracker.publicbt.com:80/announce

http://tracker.openbittorrent.com:80/announce

udp://tracker.1337x.org:80/announce





By using this site you agree to and accept our user agreement. If you havent read the user agreement please do so here