rarbg torrents
Catalog Top 10

Home
Movies
XXX
TV Shows
Games
Music
Anime
Apps
Doc
Other
Non XXX

Legendary.2010.BRRip.H264.Feel-Free

Torrent: Legendary.2010.BRRip.H264.Feel-Free
VPN:
Downloading torrents is getting riskier every day. Use a VPN to make yourself hidden while downloading torrents.
By using a VPN , your ISP and Government Agencies will not be able to spy on you, neither would they be able to track your online activity!
Description:



Genre:Drama | Sport
Language:English
IMDb:http://www.imdb.com/title/tt1563704/
Source:BluRay-AVCHD

General
Complete name :Legendary.2010.BRRip.H264.Feel-Free
Format : MPEG-4
Format profile : Base Media
Codec ID : isom
File size : 1.37 GiB
Duration : 1h 47mn
Overall bit rate : 1 827 Kbps
Video #1
ID : 1
Format : AVC
Format/Info : Advanced Video Codec
Format profile : [email protected]
Format settings, CABAC : No
Format settings, ReFrames : 1 frame
Codec ID : avc1
Codec ID/Info : Advanced Video Coding
Duration : 1h 47mn
Bit rate mode : Variable
Bit rate : 1 541 Kbps
Width : 720 pixels
Height : 384 pixels
Display aspect ratio : 1.875
Frame rate mode : Constant
Frame rate : 24.390 fps
Resolution : 24 bits
Colorimetry : 4:2:0
Scan type : Progressive
Bits/(Pixel*Frame) : 0.229
Stream size : 1.15 GiB (84%)
Audio #2
ID : 2
Format : AAC
Format/Info : Advanced Audio Codec
Format version : Version 4
Format profile : LC
Format settings, SBR : No
Codec ID : 40
Duration : 1h 47mn
Bit rate mode : Variable
Bit rate : 281 Kbps
Channel(s) : 6 channels
Channel positions : Front: L C R, Rear: L R, LFE
Sampling rate : 48.0 KHz
Resolution : 16 bits
Stream size : 216 MiB (15%)

Plot
A book-smart teenager joins his school's wrestling team as a way to reunite his surviving family members, who split apart after the death of his father, a college wrestling legend, 10 years ago

TRAILER:







Downloads: 441
Category: Movies/h.264/x264
Size: 1.4 GB
Show Files »
files
Added: 2011-06-21 18:27:10
Language: English
Peers: Seeders : 0 , Leechers : 0
Release name: Legendary.2010.BRRip.H264.Feel-Free
Trackers:

http://exodus.1337x.org/announce

http://tracker.publicbt.com/announce

http://nemesis.1337x.org/announce

http://tracker.publicbt.com/announce

http://genesis.1337x.org:1337/announce

http://denis.stalker.h3q.com/announce

http://genesis.1337x.org:1337/announce

http://tracker.publicbt.com:80/announce

http://tracker.openbittorrent.com:80/announce

udp://tracker.1337x.org:80/announce





By using this site you agree to and accept our user agreement. If you havent read the user agreement please do so here