rarbg torrents
Catalog Top 10

Home
Movies
XXX
TV Shows
Games
Music
Anime
Apps
Doc
Other
Non XXX

Predators.2010.BDRip.Xvid.SDTeam.https://www.scenedemon.org

Torrent: Predators.2010.BDRip.Xvid.SDTeam.https://www.scenedemon.org
VPN:
Downloading torrents is getting riskier every day. Use a VPN to make yourself hidden while downloading torrents.
By using a VPN , your ISP and Government Agencies will not be able to spy on you, neither would they be able to track your online activity!
Description:

[align=center]Language.....: English


http://www.SEEDBOXWORLD.biz( for your cheap fast seedbox needs )




BadGirl2k9
UnDeaD
algpz500
virusofsaten
WICCYWOLF
FoxyB
Joker321


SS

[/IMG]


Cover





http://www.imdb.com/title/tt1424381/


A group of elite warriors are hunted by members of a merciless alien race known as Predators.




Predators.2010.BDRip.Xvid.SDTeam




Format : AVI
Format/Info : Audio Video Interleave
File size : 453 MiB
Duration : 1h 40mn
Overall bit rate : 627 Kbps

Video
ID : 0
Format : MPEG-4 Visual
Format profile : [email protected]
Format settings, BVOP : No
Format settings, QPel : No
Format settings, GMC : No warppoints
Format settings, Matrix : Default (H.263)
Codec ID : XVID
Codec ID/Hint : XviD
Duration : 1h 40mn
Bit rate : 552 Kbps
Width : 512 pixels
Height : 224 pixels
Display aspect ratio : 2.25:1
Frame rate : 20.000 fps
Resolution : 8 bits
Colorimetry : 4:2:0
Scan type : Progressive
Bits/(Pixel*Frame) : 0.240
Stream size : 398 MiB (88%)
Writing library : XviD 1.1.2 (UTC 2006-11-01)

Audio
ID : 1
Format : MPEG Audio
Format version : Version 1
Format profile : Layer 3
Codec ID : 55
Codec ID/Hint : MP3
Duration : 1h 40mn
Bit rate mode : Constant
Bit rate : 64.0 Kbps
Channel(s) : 2 channels
Sampling rate : 44.1 KHz
Stream size : 46.2 MiB (10%)
Alignment : Aligned on interleaves
Interleave, duration : 26 ms (0.52 video frame)
Interleave, preload duration : 522 ms



group note: Thanx seedboxworld.biz for the seedbox


MMM DONT ASK THE SIZE ENJOY THE RELEASE
MMM MY ENCODES ARE FOR THE LOW
MMMM BW TORRENTERS AND MY OWN USE
M AND FOR SD'S PLEASURE MMMMMMM Release: UnDeaD & badgirl2k9

MMMMMMMMMMMMMMMMMMMMMMMMMMM Subs- None ever[/align]

Downloads: 148
Category: Movies/Divx/Xvid
Size: 452.6 MB
Show Files »
files
Added: 2011-06-21 18:27:11
Language: English
Peers: Seeders : 1 , Leechers : 0
Release name: Predators.2010.BDRip.Xvid.SDTeam.https://www.scenedemon.org
Trackers:

http://exodus.1337x.org/announce

http://genesis.1337x.org:1337/announce

http://tracker.publicbt.com:80/announce

http://tracker.openbittorrent.com:80/announce

udp://tracker.1337x.org:80/announce





By using this site you agree to and accept our user agreement. If you havent read the user agreement please do so here