rarbg torrents
Catalog Top 10

Home
Movies
XXX
TV Shows
Games
Music
Anime
Apps
Doc
Other
Non XXX

Predators 2010 BRRIP 720P H264-ZEKTORM

Torrent: Predators 2010 BRRIP 720P H264-ZEKTORM
VPN:
Downloading torrents is getting riskier every day. Use a VPN to make yourself hidden while downloading torrents.
By using a VPN , your ISP and Government Agencies will not be able to spy on you, neither would they be able to track your online activity!
Poster:
Predators 2010 BRRIP 720P H264-ZEKTORM
Others:
Codec Name S. L. Size

 

Description:



Title : Predators
Year : 2010
Genre : Action | Adventure | Sci-Fi | Thriller
iMDB URL : http://www.imdb.com/title/tt1424381/

Complete name : Predators.2010.BRRIP.720P.H264-ZEKTORM.mp4
Format : MPEG-4
Format profile : Base Media
Codec ID : isom
File size : 1.86 GiB
Duration : 1h 46mn
Overall bit rate : 2485 Kbps
Subtitles : English (Format: srt)

Video
ID : 1
Format : AVC
Format/Info : Advanced Video Codec
Format profile : [email protected]
Format settings, CABAC : Yes
Format settings, ReFrames : 5 frames
Codec ID : avc1
Codec ID/Info : Advanced Video Coding
Duration : 1h 46mn
Bit rate mode : Variable
Bit rate : 2171 Kbps
Width : 1280 pixels
Height : 544 pixels
Display aspect ratio : 2.35
Frame rate mode : Constant
Frame rate : 23.976 fps
Resolution : 24 bits
Colorimetry : 4:2:0
Scan type : Progressive
Bits/(Pixel*Frame) : 0.130
Stream size : 1.62 GiB (87%)
Title : Video
Writing library : x264

Audio #1
ID : 2
Format : AAC
Format/Info : Advanced Audio Codec
Format version : Version 4
Format profile : LC
Format settings, SBR : Yes
Format settings, PS : No
Codec ID : 40
Duration : 1h 46mn
Bit rate mode : Variable
Bit rate : 227 Kbps
Maximum bit rate : 261 Kbps
Channel(s) : 6 channels
Channel positions : Front: L C R, Rear: L R, LFE
Sampling rate : 48.0 KHz
Resolution : 16 bits
Stream size : 173 MiB (9%)
Title : English
Language : English

Audio #2
ID : 3
Format : AAC
Format/Info : Advanced Audio Codec
Format version : Version 4
Format profile : LC
Format settings, SBR : Yes
Format settings, PS : No
Codec ID : 40
Duration : 1h 46mn
Bit rate mode : Variable
Bit rate : 83.6 Kbps
Maximum bit rate : 112 Kbps
Channel(s) : 2 channels
Channel positions : L R
Sampling rate : 48.0 KHz
Resolution : 16 bits
Stream size : 63.9 MiB (3%)
Language : English

Downloads: 440
Category: Movies/h.264/x264
Size: 1.9 GB
Show Files »
files
Added: 2011-06-21 18:27:21
Language: English
Title: Predators
Rating: 60
Genres: ActionAdventureScience FictionThriller
Year: 2010
Summery: A mercenary named Royce reluctantly leads a motley crew of warriors who soon come to realize they've been captured and deposited on an alien planet by an unknown nemesis. With the exception of a peculiar physician, they are all cold-blooded killers, convicts, death squad members...hunters who have now become the hunted.
Peers: Seeders : 0 , Leechers : 0
Release name: Predators 2010 BRRIP 720P H264-ZEKTORM
Trackers:

http://tracker.openbittorrent.com/announce

http://inferno.demonoid.com:3404/announce

http://denis.stalker.h3q.com:6969/announce

udp://denis.stalker.h3q.com:6969/announce

http://tracker.publicbt.com:80/announce

http://pow7.com:80/announce

http://tracker.irc.su:80/announce

http://tracker.torrentbay.to:6969/announce

http://tracker.openbittorrent.com/announce

http://exodus.desync.com:6969/announce

http://tracker.openbittorrent.com:80/announce

http://genesis.1337x.org:1337/announce

http://tracker.publicbt.com:80/announce

http://tracker.openbittorrent.com:80/announce

udp://tracker.1337x.org:80/announce





By using this site you agree to and accept our user agreement. If you havent read the user agreement please do so here