rarbg torrents
Catalog Top 10

Home
Movies
XXX
TV Shows
Games
Music
Anime
Apps
Doc
Other
Non XXX

Return of the Living Dead Part II (1988)

Torrent: Return of the Living Dead Part II (1988)
VPN:
Downloading torrents is getting riskier every day. Use a VPN to make yourself hidden while downloading torrents.
By using a VPN , your ISP and Government Agencies will not be able to spy on you, neither would they be able to track your online activity!
Description:



Video
ID : 0
Format : MPEG-4 Visual
Format profile : Advanced [email protected]
Format settings, BVOP : Yes
Format settings, QPel : No
Format settings, GMC : No warppoints
Format settings, Matrix : Custom
Codec ID : XVID
Codec ID/Hint : XviD
Duration : 1h 29mn
Bit rate : 970 Kbps
Width : 672 pixels
Height : 384 pixels
Display aspect ratio : 16:9
Frame rate : 23.976 fps
Color space : YUV
Chroma subsampling : 4:2:0
Bit depth : 8 bits
Scan type : Progressive
Bits/(Pixel*Frame) : 0.157
Stream size : 620 MiB (88%)
Writing library : XviD 1.2.1 (UTC 2008-12-04)

Audio
ID : 1
Format : MPEG Audio
Format version : Version 1
Format profile : Layer 3
Mode : Joint stereo
Codec ID : 55
Codec ID/Hint : MP3
Duration : 1h 29mn
Bit rate mode : Variable
Bit rate : 112 Kbps
Channel(s) : 2 channels
Sampling rate : 48.0 KHz
Stream size : 72.7 MiB (10%)
Alignment : Aligned on interleaves
Interleave, duration : 24 ms (0.58 video frame)
Interleave, preload duration : 141 ms
Writing library : LAME3.98.2
Language : English

http://www.imdb.com/title/tt0095990/




Downloads: 1240
Category: Movies/Divx/Xvid
Size: 701.1 MB
Show Files »
files
Added: 2011-06-21 18:27:27
Language: English
Peers: Seeders : 2 , Leechers : 0
Release name: Return of the Living Dead Part II (1988)
Trackers:

http://inferno.demonoid.com:3404/announce

http://exodus.1337x.org/announce

http://nemesis.1337x.org/announce

http://genesis.1337x.org:1337/announce

http://tracker.openbittorrent.com/announce

http://tracker.publicbt.com/announce

http://10.rarbg.com:80/announce

http://pow7.com:80/announce

http://denis.stalker.h3q.com/announce

udp://tracker.1337x.org:80/announce





By using this site you agree to and accept our user agreement. If you havent read the user agreement please do so here