rarbg torrents
Catalog Top 10

Home
Movies
XXX
TV Shows
Games
Music
Anime
Apps
Doc
Other
Non XXX

Scotland - Contains Strong Language (1280x720p HD, 50fps, soft Eng subs)

Torrent: Scotland - Contains Strong Language (1280x720p HD, 50fps, soft Eng subs)
VPN:
Downloading torrents is getting riskier every day. Use a VPN to make yourself hidden while downloading torrents.
By using a VPN , your ISP and Government Agencies will not be able to spy on you, neither would they be able to track your online activity!
Description:

Scotland - Contains Strong Language (1280x720p HD, 50fps, soft Eng subs)

Schooled in Fife, coming of age in a rock 'n' roll band, then finding her forte was directing temperamental actors, Cora Bissett is no stranger to theatrical Scottish swearing. So who better to present a celebration of Caledonian cursing? / / This documentary sees Cora sing, swear and scrutinise why Scotland swears so well. Cora begins with the first hurdle - how does one discuss swear words on the BBC? Aunty Beeb is the institution that has been historically priggish about language - always bleeping words and apologising for those that slipped through. So Cora runs a list past BBC Scotland's head of editorial standards to see what she can get away with. / / She then joins a sociolinguistics class at Glasgow University to understand why swearing offends - are the words the problem, the context, the speakers or the meaning? Next up is a visit to the Scottish National Library in Edinburgh to see William Dunbar's epic poem The Flyting of Dunbar and Kennedie, which contains the first recorded use of the F-word. / / Cora takes a bleep-and-you'll-miss-it tour of swearing in the past three centuries, from the Reformation to the early days of Scottish broadcasting, up to more recent times, where she reveals how comedian Billy Connolly got around the censors with his concert LPs. Pastor Jack Glass labelled Billy 'manure mouth', but folk loved Billy's comedy and his albums were hugely successful. / / When James Kelman won the Booker prize in 1994, his novel had over 4,000 F-words. We re-examine the controversy and reaction of the literary establishment in London, who called Kelman a 'literary savage'. / / In more recent times, social media has become the stage for Scottish swearing, and at last a linguist can analyse everyday speech. It turns out that the majority of swear words are not used in an insulting context but are just part of the salty way we speak.

First broadcast: 7 April 2020
Duration: 1 hour

Torrent dead? Request reseed at torrentgalaxy.org - or ask at elsonroa at tutanota.com

Media info:-
General
Format : MPEG-4
Format profile : Base Media
Codec ID : isom (isom/iso2/avc1/mp41)
File size : 2.11 GiB
Duration : 58mn 59s
Overall bit rate mode : Variable
Overall bit rate : 5 113 Kbps

Video
ID : 1
Format : AVC
Format/Info : Advanced Video Codec
Format profile : [email protected]
Format settings, CABAC : Yes
Format settings, ReFrames : 4 frames
Codec ID : avc1
Codec ID/Info : Advanced Video Coding
Duration : 58mn 59s
Bit rate : 4 978 Kbps
Width : 1 280 pixels
Height : 720 pixels
Display aspect ratio : 16:9
Frame rate mode : Constant
Frame rate : 50.000 fps
Color space : YUV
Chroma subsampling : 4:2:0
Bit depth : 8 bits
Scan type : Progressive
Bits/(Pixel*Frame) : 0.108
Stream size : 2.05 GiB (97%)
Encoded date : UTC 1904-01-01 00:00:00
Tagged date : UTC 1904-01-01 00:00:00
Color range : Limited
Color primaries : BT.709
Transfer characteristics : BT.709
Matrix coefficients : BT.709

Audio
ID : 2
Format : AAC
Format/Info : Advanced Audio Codec
Format profile : LC
Codec ID : 40
Duration : 58mn 59s
Bit rate mode : Variable
Bit rate : 128 Kbps
Maximum bit rate : 148 Kbps
Channel(s) : 2 channels
Channel positions : Front: L R
Sampling rate : 48.0 KHz
Frame rate : 46.875 fps (1024 spf)
Compression mode : Lossy
Stream size : 54.0 MiB (3%)
Language : English

Downloads: 9
Category: TV/HD
Size: 2.1 GB
Show Files »
files
Added: 2020-04-19 07:53:03
Language: English
Peers: Seeders : 0 , Leechers : 0
Release name: Scotland - Contains Strong Language (1280x720p HD, 50fps, soft Eng subs)
Trackers:

http://tracker.files.fm:6969/announce

http://h4.trakx.nibba.trade:80/announce

http://tracker.nyap2p.com:8080/announce

http://vps02.net.orel.ru:80/announce





By using this site you agree to and accept our user agreement. If you havent read the user agreement please do so here