rarbg torrents
Catalog Top 10

Home
Movies
XXX
TV Shows
Games
Music
Anime
Apps
Doc
Other
Non XXX

The Lord of the Rings The Return of the King (2003) THEATRICAL CUT (1080p BluRay x265 HEVC 10bit AAC 7.1 Joy) [UTR]

Torrent: The Lord of the Rings The Return of the King (2003) THEATRICAL CUT (1080p BluRay x265 HEVC 10bit AAC 7.1 Joy) [UTR]
VPN:
Downloading torrents is getting riskier every day. Use a VPN to make yourself hidden while downloading torrents.
By using a VPN , your ISP and Government Agencies will not be able to spy on you, neither would they be able to track your online activity!
Poster:
The Lord of the Rings The Return of the King (2003) THEATRICAL CUT (1080p BluRay x265 HEVC 10bit AAC 7.1 Joy) [UTR]
Others:
Codec Name S. L. Size

 

Description:







Media Information

Code:

General
Format : Matroska
Format version : Version 4 / Version 2
File size : 2.56 GiB
Duration : 3 h 21 min
Overall bit rate : 1 825 kb/s
Encoded date : UTC 2020-03-09 07:53:31
Writing application : mkvmerge v40.0.0 ('Old Town Road + Pony') 64-bit
Writing library : libebml v1.3.9 + libmatroska v1.5.2
Cover : Yes
Attachments : cover.jpg

Video
ID : 1
Format : HEVC
Format/Info : High Efficiency Video Coding
Format profile : Main [email protected]@Main
Codec ID : V_MPEGH/ISO/HEVC
Duration : 3 h 21 min
Bit rate : 1 501 kb/s
Width : 1 920 pixels
Height : 800 pixels
Display aspect ratio : 2.40:1
Frame rate mode : Constant
Frame rate : 23.976 (24000/1001) FPS
Color space : YUV
Chroma subsampling : 4:2:0
Bit depth : 10 bits
Bits/(Pixel*Frame) : 0.041
Stream size : 2.11 GiB (82%)
Writing library : x265 3.2+9-971180b100f8:[Windows][GCC 9.2.0][64 bit] 10bit
Encoding settings : cpuid=1111039 / frame-threads=3 / numa-pools=12 / wpp / no-pmode / no-pme / no-psnr / ssim / log-level=2 / input-csp=1 / input-res=1920x800 / interlace=0 / total-frames=289177 / level-idc=0 / high-tier=1 / uhd-bd=0 / ref=4 / no-allow-non-conformance / no-repeat-headers / annexb / no-aud / no-hrd / info / hash=0 / no-temporal-layers / open-gop / min-keyint=23 / keyint=250 / gop-lookahead=0 / bframes=8 / b-adapt=2 / b-pyramid / bframe-bias=40 / rc-lookahead=80 / lookahead-slices=4 / scenecut=40 / radl=0 / no-splice / no-intra-refresh / ctu=64 / min-cu-size=8 / rect / no-amp / max-tu-size=32 / tu-inter-depth=1 / tu-intra-depth=1 / limit-tu=0 / rdoq-level=2 / dynamic-rd=0.00 / ssim-rd / signhide / no-tskip / nr-intra=0 / nr-inter=0 / constrained-intra / strong-intra-smoothing / max-merge=5 / limit-refs=3 / limit-modes / me=4 / subme=7 / merange=57 / temporal-mvp / no-frame-dup / no-hme / weightp / no-weightb / no-analyze-src-pics / deblock=0:0 / sao / no-sao-non-deblock / rd=4 / selective-sao=4 / no-early-skip / rskip / no-fast-intra / no-tskip-fast / no-cu-lossless / no-b-intra / no-splitrd-skip / rdpenalty=0 / psy-rd=2.50 / psy-rdoq=1.50 / no-rd-refine / no-lossless / cbqpoffs=0 / crqpoffs=0 / rc=abr / bitrate=1500 / qcomp=0.60 / qpstep=4 / stats-write=0 / stats-read=2 / cplxblur=20.0 / qblur=0.5 / ipratio=1.40 / pbratio=1.30 / aq-mode=3 / aq-strength=0.40 / cutree / zone-count=0 / no-strict-cbr / qg-size=32 / no-rc-grain / qpmax=69 / qpmin=0 / no-const-vbv / sar=0 / overscan=0 / videoformat=5 / range=0 / colorprim=1 / transfer=1 / colormatrix=1 / chromaloc=0 / display-window=0 / cll=0,0 / min-luma=0 / max-luma=1023 / log2-max-poc-lsb=8 / vui-timing-info / vui-hrd-info / slices=1 / no-opt-qp-pps / no-opt-ref-list-length-pps / multi-pass-opt-rps / scenecut-bias=0.05 / no-opt-cu-delta-qp / no-aq-motion / no-hdr / no-hdr-opt / no-dhdr10-opt / no-idr-recovery-sei / analysis-load / analysis-reuse-level=10 / scale-factor=0 / refine-intra=0 / refine-inter=0 / refine-mv=1 / refine-ctu-distortion=0 / limit-sao / ctu-info=0 / no-lowpass-dct / refine-analysis-type=0 / copy-pic=1 / max-ausize-factor=1.0 / no-dynamic-refine / no-single-sei / no-hevc-aq / no-svt / no-field / qp-adaptation-range=1.00
Default : Yes
Forced : No
Color range : Limited
Color primaries : BT.709
Transfer characteristics : BT.709
Matrix coefficients : BT.709

Audio
ID : 2
Format : AAC
Format/Info : Advanced Audio Codec
Format profile : LC
Codec ID : A_AAC
Duration : 3 h 21 min
Bit rate : 288 kb/s
Channel(s) : 8 channels
Channel positions : Front: L C R, Side: L R, Back: L R, LFE
Sampling rate : 48.0 kHz
Frame rate : 46.875 FPS (1024 spf)
Compression mode : Lossy
Delay relative to video : 9 ms
Stream size : 407 MiB (15%)
Language : English
Default : No
Forced : No

Subtitle #1
ID : 3
Format : PGS
Muxing mode : zlib
Codec ID : S_HDMV/PGS
Codec ID/Info : Picture based subtitle format used on BDs/HD-DVDs
Duration : 1 h 45 min
Bit rate : 38 b/s
Count of elements : 6
Stream size : 30.1 KiB (0%)
Title : Forced Elven parts
Language : English
Default : No
Forced : Yes

Subtitle #2
ID : 4
Format : VobSub
Muxing mode : zlib
Codec ID : S_VOBSUB
Codec ID/Info : Picture based subtitle format used on DVDs
Duration : 3 h 16 min
Bit rate : 5 333 b/s
Count of elements : 1676
Stream size : 7.50 MiB (0%)
Language : English
Default : No
Forced : No

Subtitle #3
ID : 5
Format : VobSub
Muxing mode : zlib
Codec ID : S_VOBSUB
Codec ID/Info : Picture based subtitle format used on DVDs
Duration : 3 h 20 min
Bit rate : 2 438 b/s
Count of elements : 1395
Stream size : 3.50 MiB (0%)
Language : Arabic
Default : No
Forced : No

Subtitle #4
ID : 6
Format : VobSub
Muxing mode : zlib
Codec ID : S_VOBSUB
Codec ID/Info : Picture based subtitle format used on DVDs
Duration : 3 h 20 min
Bit rate : 4 393 b/s
Count of elements : 1392
Stream size : 6.30 MiB (0%)
Language : Bulgarian
Default : No
Forced : No

Subtitle #5
ID : 7
Format : VobSub
Muxing mode : zlib
Codec ID : S_VOBSUB
Codec ID/Info : Picture based subtitle format used on DVDs
Duration : 3 h 20 min
Bit rate : 3 511 b/s
Count of elements : 1258
Stream size : 5.03 MiB (0%)
Language : Croatian
Default : No
Forced : No

Subtitle #6
ID : 8
Format : VobSub
Muxing mode : zlib
Codec ID : S_VOBSUB
Codec ID/Info : Picture based subtitle format used on DVDs
Duration : 3 h 20 min
Bit rate : 3 786 b/s
Count of elements : 1184
Stream size : 5.43 MiB (0%)
Language : Czech
Default : No
Forced : No

Subtitle #7
ID : 9
Format : VobSub
Muxing mode : zlib
Codec ID : S_VOBSUB
Codec ID/Info : Picture based subtitle format used on DVDs
Duration : 3 h 20 min
Bit rate : 4 232 b/s
Count of elements : 1345
Stream size : 6.07 MiB (0%)
Language : Estonian
Default : No
Forced : No

Subtitle #8
ID : 10
Format : VobSub
Muxing mode : zlib
Codec ID : S_VOBSUB
Codec ID/Info : Picture based subtitle format used on DVDs
Duration : 3 h 20 min
Bit rate : 3 943 b/s
Count of elements : 1220
Stream size : 5.65 MiB (0%)
Language : Hungarian
Default : No
Forced : No

Subtitle #9
ID : 11
Format : VobSub
Muxing mode : zlib
Codec ID : S_VOBSUB
Codec ID/Info : Picture based subtitle format used on DVDs
Duration : 3 h 20 min
Bit rate : 3 583 b/s
Count of elements : 1341
Stream size : 5.14 MiB (0%)
Language : Korean
Default : No
Forced : No

Subtitle #10
ID : 12
Format : VobSub
Muxing mode : zlib
Codec ID : S_VOBSUB
Codec ID/Info : Picture based subtitle format used on DVDs
Duration : 3 h 20 min
Bit rate : 3 957 b/s
Count of elements : 1248
Stream size : 5.67 MiB (0%)
Language : Latvian
Default : No
Forced : No

Subtitle #11
ID : 13
Format : VobSub
Muxing mode : zlib
Codec ID : S_VOBSUB
Codec ID/Info : Picture based subtitle format used on DVDs
Duration : 3 h 20 min
Bit rate : 3 851 b/s
Count of elements : 1193
Stream size : 5.52 MiB (0%)
Language : Polish
Default : No
Forced : No

Subtitle #12
ID : 14
Format : VobSub
Muxing mode : zlib
Codec ID : S_VOBSUB
Codec ID/Info : Picture based subtitle format used on DVDs
Duration : 3 h 20 min
Bit rate : 4 657 b/s
Count of elements : 1394
Stream size : 6.68 MiB (0%)
Language : Portuguese
Default : No
Forced : No

Subtitle #13
ID : 15
Format : VobSub
Muxing mode : zlib
Codec ID : S_VOBSUB
Codec ID/Info : Picture based subtitle format used on DVDs
Duration : 3 h 20 min
Bit rate : 4 279 b/s
Count of elements : 1195
Stream size : 6.13 MiB (0%)
Language : Romanian
Default : No
Forced : No

Subtitle #14
ID : 16
Format : VobSub
Muxing mode : zlib
Codec ID : S_VOBSUB
Codec ID/Info : Picture based subtitle format used on DVDs
Duration : 3 h 20 min
Bit rate : 4 123 b/s
Count of elements : 1276
Stream size : 5.91 MiB (0%)
Language : Russian
Default : No
Forced : No

Subtitle #15
ID : 17
Format : VobSub
Muxing mode : zlib
Codec ID : S_VOBSUB
Codec ID/Info : Picture based subtitle format used on DVDs
Duration : 3 h 20 min
Bit rate : 3 922 b/s
Count of elements : 1343
Stream size : 5.62 MiB (0%)
Language : Serbian
Default : No
Forced : No

Subtitle #16
ID : 18
Format : VobSub
Muxing mode : zlib
Codec ID : S_VOBSUB
Codec ID/Info : Picture based subtitle format used on DVDs
Duration : 3 h 20 min
Bit rate : 3 470 b/s
Count of elements : 1089
Stream size : 4.97 MiB (0%)
Language : Slovenian
Default : No
Forced : No

Subtitle #17
ID : 19
Format : VobSub
Muxing mode : zlib
Codec ID : S_VOBSUB
Codec ID/Info : Picture based subtitle format used on DVDs
Duration : 3 h 19 min
Bit rate : 3 652 b/s
Count of elements : 1344
Stream size : 5.22 MiB (0%)
Language : Thai
Default : No
Forced : No

Menu
00:00:00.000 : en:The Finding of the Ring
00:06:13.581 : en:Journey to the Cross-Roads
00:09:10.633 : en:The Road to Isengard
00:12:08.394 : en:Return to Edoras
00:15:10.534 : en:Gollum's Villainy
00:19:09.898 : en:The Palantir
00:26:45.645 : en:Arwen's Vision
00:29:39.736 : en:The Reforging of Narsil
00:31:39.939 : en:Minas Tirith
00:37:13.397 : en:"the Deep Breath Before the Plunge"
00:39:50.346 : en:Minas Morgul
00:43:46.040 : en:"the Board Is Set..."
00:44:21.367 : en:Osgiliath Invaded
00:46:38.337 : en:The Lighting of the Beacons
00:49:21.375 : en:Th鏤en's Decision
00:51:53.318 : en:The Fall of Osgiliath
00:56:09.991 : en:The Stairs of Cirith Ungol
00:58:09.819 : en:Allegiance to Denethor
01:01:11.250 : en:The Parting of Sam and Frodo
01:06:30.152 : en:The Sacrifice of Faramir
01:11:11.850 : en:Marshalling at Dunharrow
01:14:45.898 : en:And
01:19:27.554 : en:Aragorn Takes the Paths of the Dead
01:21:55.869 : en:"No More Despair"
01:23:19.077 : en:Dwimorberg - the Haunted Mountain
01:25:19.906 : en:The Muster of Rohan
01:27:05.470 : en:The King of the Dead
01:29:59.394 : en:The Siege of Gondor
01:37:23.629 : en:Shelob's Lair
01:46:32.135 : en:Grond - the Hammer of the Underworld
01:47:09.047 : en:The Tomb of the Stewards
01:47:43.582 : en:Breaking the Gate of Gondor
01:48:50.398 : en:The Choices of Master Samwise
01:54:52.135 : en:Denethor's Madness
01:55:57.450 : en:The Ride of the Rohirrim
02:01:33.786 : en:The Pyre of Denethor
02:03:29.193 : en:The Battle of the Pelennor Fields
02:07:20.257 : en:"a Far Green Country"
02:08:50.681 : en:The Nazg
02:10:34.701 : en:The Black Ships
02:11:29.047 : en:Shieldmaiden of Rohan
02:12:20.390 : en:Victory at Minas Tirith
02:14:21.386 : en:The Passing of Th鏤en
02:16:27.137 : en:Oaths Fulfilled
02:18:15.036 : en:The Tower of Cirith Ungol
02:24:41.422 : en:The Last Debate
02:26:35.703 : en:The Land of Shadow
02:29:38.552 : en:The Black Gate Opens
02:34:13.619 : en:"I Can't Carry It for You... But I Can Carry You"
02:36:25.918 : en:The Last Move
02:37:29.523 : en:Mount Doom
02:39:02.199 : en:"the Eagles Are Coming!"
02:39:36.233 : en:The Crack of Doom
02:45:14.863 : en:Sauron Defeated
02:47:28.163 : en:The End of All Things
02:50:59.749 : en:The Fellowship Reunited
02:53:21.265 : en:The Return of the King
02:58:13.349 : en:Homeward Bound
03:02:55.214 : en:The Grey Havens
03:12:12.521 : en:End Credits



Source Information

Code:

Release:
The.Lord.of.the.Rings.The.Return.of.the.King.2003.Theatrical.Cut.1080p.BluRay.REMUX.VC-1.DTS-HD.MA.5.1-EPSiLON.mkv (30.38 GBs)

Code:


Note From UTR
Whilst we are happy for our releases to be re-posted on a platform we aren't on, please do so in an 'as-is' format. We ask that you do not create a new torrent, include all descriptions you see above including the UTR logo, tags, notes and screenshots. If you'd like to become a permanent poster on a website we don't post to, feel free to get in contact with a UTR member.
If possible please donate for seedboxes.
BTC - 1QA5fum5AyXvWzdVCkQzUNvw3Ef15fHRaR
Monero - 8AuksPSzY7fen3HHT1a2342PgVy4J93MKfXG3AAcayV76miTyJ3sNfn38srwrpLirGfeR5DwhTL8GW8pdQgT7bZcJ25ynMx
Dash - Xh4mNs6uwZdpCEX2HSEVwGvPD7yKxZ1Ccd
Ethereum - 0x51c06c94e74c16735a7a6e841ad29fc90a84eb1f




Downloads: 219
Category: Movies/HEVC/x265
Size: 2.6 GB
Show Files »
files
Added: 2020-03-11 01:32:51
Language: English
Title: The Lord of the Rings: The Return o...
Rating: 82
Genres: ActionAdventureFantasy
Year: 2003
Summery: Aragorn is revealed as the heir to the ancient kings as he, Gandalf and the other members of the broken fellowship struggle to save Gondor from Sauron's forces. Meanwhile, Frodo and Sam bring the ring closer to the heart of Mordor, the dark lord's realm.
Peers: Seeders : 40 , Leechers : 6
Tags: joy utr hevc x265 
Release name: The Lord of the Rings The Return of the King (2003) THEATRICAL CUT (1080p BluRay x265 HEVC 10bit AAC 7.1 Joy) [UTR]
Trackers:

udp://tracker.opentrackr.org:1337/announce

udp://tracker.coppersurfer.tk:6969/announce

udp://9.rarbg.com:2710/announce

udp://9.rarbg.to:2710/announce

udp://tracker.torrent.eu.org:451/announce

udp://exodus.desync.com:6969/announce

udp://tracker.tiny-vps.com:6969/announce

udp://open.demonii.si:1337/announce

udp://tracker.internetwarriors.net:1337/announce





By using this site you agree to and accept our user agreement. If you havent read the user agreement please do so here