rarbg torrents
Catalog Top 10

Home
Movies
XXX
TV Shows
Games
Music
Anime
Apps
Doc
Other
Non XXX

The Lord of the Rings The Two Towers (2002) Extended (1080p BDRip x265 10bit DTS-HD MA 6.1 - r0b0t) [TAoE].mkv

Torrent: The Lord of the Rings The Two Towers (2002) Extended (1080p BDRip x265 10bit DTS-HD MA 6.1 - r0b0t) [TAoE].mkv
VPN:
Downloading torrents is getting riskier every day. Use a VPN to make yourself hidden while downloading torrents.
By using a VPN , your ISP and Government Agencies will not be able to spy on you, neither would they be able to track your online activity!
Poster:
The Lord of the Rings The Two Towers (2002) Extended (1080p BDRip x265 10bit DTS-HD MA 6.1 - r0b0t) [TAoE].mkv
Others:
Codec Name S. L. Size

 

Description:






The Lord of the Rings: The Two Towers (2002) IMDB







Source


The.Lord.of.the.Rings.The.Two.Towers.2002.Extended.Cut.BluRay.1080p.DTS-HD.MA.6.1.AVC.REMUX-FraMeSToR

Media Information


General
Unique ID : 81079584258660566939697635356789888232 (0x3CFF5C23BB4FAB03977394A73DC2D4E8)
Complete name : The Lord of the Rings The Two Towers (2002) Extended (1080p BDRip x265 10bit DTS-HD MA 6.1 - r0b0t) [TAoE].mkv
Format : Matroska
Format version : Version 4
File size : 22.6 GiB
Duration : 3 h 55 min
Overall bit rate mode : Variable
Overall bit rate : 13.7 Mb/s
Writing application : Lavf58.29.100
Writing library : Lavf58.29.100
ErrorDetectionType : Per level 1

Video
ID : 1
Format : HEVC
Format/Info : High Efficiency Video Coding
Format profile : Main [email protected]@Main
Codec ID : V_MPEGH/ISO/HEVC
Duration : 3 h 55 min
Bit rate : 6 513 kb/s
Width : 1 920 pixels
Height : 1 080 pixels
Display aspect ratio : 16:9
Frame rate mode : Constant
Frame rate : 23.976 (24000/1001) FPS
Color space : YUV
Chroma subsampling : 4:2:0
Bit depth : 10 bits
Bits/(Pixel*Frame) : 0.131
Stream size : 10.7 GiB (47%)
Title : Encoded by r0b0t for TAoE using Shinguru V1.2
Writing library : x265 3.2+35-acc5d16999e2:[Windows][GCC 9.2.1][64 bit] 10bit
Encoding settings : cpuid=1111039 / frame-threads=5 / numa-pools=12,12,12,12 / wpp / no-pmode / no-pme / no-psnr / no-ssim / log-level=2 / input-csp=1 / input-res=1920x1080 / interlace=0 / total-frames=0 / level-idc=0 / high-tier=1 / uhd-bd=0 / ref=4 / no-allow-non-conformance / no-repeat-headers / annexb / no-aud / no-hrd / info / hash=0 / no-temporal-layers / open-gop / min-keyint=23 / keyint=250 / gop-lookahead=0 / bframes=8 / b-adapt=2 / b-pyramid / bframe-bias=0 / rc-lookahead=80 / lookahead-slices=4 / scenecut=40 / hist-scenecut=0 / radl=0 / no-splice / no-intra-refresh / ctu=64 / min-cu-size=8 / no-rect / no-amp / max-tu-size=32 / tu-inter-depth=1 / tu-intra-depth=1 / limit-tu=0 / rdoq-level=2 / dynamic-rd=0.00 / no-ssim-rd / signhide / no-tskip / nr-intra=0 / nr-inter=0 / no-constrained-intra / no-strong-intra-smoothing / max-merge=3 / limit-refs=3 / limit-modes / me=3 / subme=5 / merange=57 / temporal-mvp / no-frame-dup / no-hme / weightp / no-weightb / no-analyze-src-pics / deblock=0:0 / sao / no-sao-non-deblock / rd=4 / selective-sao=4 / no-early-skip / rskip / no-fast-intra / no-tskip-fast / no-cu-lossless / no-b-intra / no-splitrd-skip / rdpenalty=0 / psy-rd=1.30 / psy-rdoq=2.00 / no-rd-refine / no-lossless / cbqpoffs=0 / crqpoffs=0 / rc=crf / crf=19.0 / qcomp=0.60 / qpstep=4 / stats-write=0 / stats-read=0 / ipratio=1.40 / pbratio=1.30 / aq-mode=4 / aq-strength=1.10 / cutree / zone-count=0 / no-strict-cbr / qg-size=32 / no-rc-grain / qpmax=69 / qpmin=0 / no-const-vbv / sar=1 / overscan=0 / videoformat=5 / range=0 / colorprim=2 / transfer=2 / colormatrix=2 / chromaloc=0 / display-window=0 / cll=0,0 / min-luma=0 / max-luma=1023 / log2-max-poc-lsb=8 / vui-timing-info / vui-hrd-info / slices=1 / no-opt-qp-pps / no-opt-ref-list-length-pps / no-multi-pass-opt-rps / scenecut-bias=0.05 / hist-threshold=0.01 / no-opt-cu-delta-qp / no-aq-motion / no-hdr10 / no-hdr10-opt / no-dhdr10-opt / no-idr-recovery-sei / analysis-reuse-level=0 / analysis-save-reuse-level=0 / analysis-load-reuse-level=0 / scale-factor=0 / refine-intra=0 / refine-inter=0 / refine-mv=1 / refine-ctu-distortion=0 / no-limit-sao / ctu-info=0 / no-lowpass-dct / refine-analysis-type=0 / copy-pic=1 / max-ausize-factor=1.0 / no-dynamic-refine / no-single-sei / no-hevc-aq / no-svt / no-field / qp-adaptation-range=1.00 / no-scenecut-aware-qpconformance-window-offsets / right=0 / bottom=0
Default : Yes
Forced : No
Color range : Limited

Audio #1
ID : 2
Format : DTS ES XXCH XLL
Format/Info : Digital Theater Systems
Commercial name : DTS-HD Master Audio
Codec ID : A_DTS
Duration : 3 h 55 min
Bit rate mode : Variable
Bit rate : 4 479 kb/s
Channel(s) : 7 channels
Channel layout : C L R Ls Rs LFE Cb
Sampling rate : 48.0 kHz
Frame rate : 93.750 FPS (512 SPF)
Bit depth : 24 bits
Compression mode : Lossless
Stream size : 7.37 GiB (33%)
Language : English
Default : Yes
Forced : No

Audio #2
ID : 3
Format : AC-3
Format/Info : Audio Coding 3
Commercial name : Dolby Digital
Codec ID : A_AC3
Duration : 3 h 55 min
Bit rate mode : Constant
Bit rate : 192 kb/s
Channel(s) : 2 channels
Channel layout : L R
Sampling rate : 48.0 kHz
Frame rate : 31.250 FPS (1536 SPF)
Bit depth : 32 bits
Compression mode : Lossy
Stream size : 323 MiB (1%)
Title : Commentary Director and Writers by Peter Jackson, Fran Walsh and Philippa Boyens
Language : English
Service kind : Complete Main
Default : No
Forced : No

Audio #3
ID : 4
Format : AC-3
Format/Info : Audio Coding 3
Commercial name : Dolby Digital
Codec ID : A_AC3
Duration : 3 h 55 min
Bit rate mode : Constant
Bit rate : 192 kb/s
Channel(s) : 2 channels
Channel layout : L R
Sampling rate : 48.0 kHz
Frame rate : 31.250 FPS (1536 SPF)
Bit depth : 32 bits
Compression mode : Lossy
Stream size : 323 MiB (1%)
Title : Commentary Design Team by Grant Major, Richard Taylor, Alan Lee, John Howe, Dan Hennah, Chris Hennah and Tania Rodger
Language : English
Service kind : Complete Main
Default : No
Forced : No

Audio #4
ID : 5
Format : AC-3
Format/Info : Audio Coding 3
Commercial name : Dolby Digital
Codec ID : A_AC3
Duration : 3 h 55 min
Bit rate mode : Constant
Bit rate : 192 kb/s
Channel(s) : 2 channels
Channel layout : L R
Sampling rate : 48.0 kHz
Frame rate : 31.250 FPS (1536 SPF)
Bit depth : 32 bits
Compression mode : Lossy
Stream size : 323 MiB (1%)
Title : Commentary Production Team by Mike Horton, Jabez Olssen, Joe Letteri, Barrie Osborne, Mark Ordesky, Andrew Lesnie, Rick Porras, Howard Shore, Jim Rygiel, Randy Cook, Ethan van der Ryn, Mike Hopkins, Christian Rivers, Brian Vant Hul and Alex Funk
Language : English
Service kind : Complete Main
Default : No
Forced : No

Audio #5
ID : 6
Format : AC-3
Format/Info : Audio Coding 3
Commercial name : Dolby Digital
Codec ID : A_AC3
Duration : 3 h 55 min
Bit rate mode : Constant
Bit rate : 192 kb/s
Channel(s) : 2 channels
Channel layout : L R
Sampling rate : 48.0 kHz
Frame rate : 31.250 FPS (1536 SPF)
Bit depth : 32 bits
Compression mode : Lossy
Stream size : 323 MiB (1%)
Title : Commentary Cast by Elijah Wood, Sean Astin, Andy Serkis, John Rhys-Davies, Billy Boyd, Dominic Monaghan, Orlando Bloom, Christopher Lee, Sean Bean, Bernard Hill, Miranda Otto, David Wenham, Brad Dourif, Karl Urban, John Noble and Craig Parker
Language : English
Service kind : Complete Main
Default : No
Forced : No

Text #1
ID : 7
Format : PGS
Codec ID : S_HDMV/PGS
Codec ID/Info : Picture based subtitle format used on BDs/HD-DVDs
Duration : 3 h 3 min
Bit rate : 573 b/s
Count of elements : 100
Stream size : 769 KiB (0%)
Title : English (Forced)
Language : English
Default : No
Forced : Yes

Text #2
ID : 8
Format : PGS
Codec ID : S_HDMV/PGS
Codec ID/Info : Picture based subtitle format used on BDs/HD-DVDs
Duration : 3 h 54 min
Bit rate : 20.0 kb/s
Count of elements : 4386
Stream size : 33.6 MiB (0%)
Title : English (SDH)
Language : English
Default : No
Forced : No

Text #3
ID : 9
Format : PGS
Codec ID : S_HDMV/PGS
Codec ID/Info : Picture based subtitle format used on BDs/HD-DVDs
Duration : 3 h 54 min
Bit rate : 16.3 kb/s
Count of elements : 4070
Stream size : 27.4 MiB (0%)
Title : Chinese (Traditional)
Language : Chinese
Default : No
Forced : No

Text #4
ID : 10
Format : PGS
Codec ID : S_HDMV/PGS
Codec ID/Info : Picture based subtitle format used on BDs/HD-DVDs
Duration : 3 h 54 min
Bit rate : 15.2 kb/s
Count of elements : 4070
Stream size : 25.6 MiB (0%)
Title : Chinese (Cantonese)
Language : Chinese
Default : No
Forced : No

Text #5
ID : 11
Format : PGS
Codec ID : S_HDMV/PGS
Codec ID/Info : Picture based subtitle format used on BDs/HD-DVDs
Duration : 3 h 54 min
Bit rate : 16.4 kb/s
Count of elements : 4014
Stream size : 27.6 MiB (0%)
Title : Czech
Language : Czech
Default : No
Forced : No

Text #6
ID : 12
Format : PGS
Codec ID : S_HDMV/PGS
Codec ID/Info : Picture based subtitle format used on BDs/HD-DVDs
Duration : 3 h 34 min
Bit rate : 17.1 kb/s
Count of elements : 3153
Stream size : 26.2 MiB (0%)
Title : Danish
Language : Danish
Default : No
Forced : No

Text #7
ID : 13
Format : PGS
Codec ID : S_HDMV/PGS
Codec ID/Info : Picture based subtitle format used on BDs/HD-DVDs
Duration : 3 h 33 min
Bit rate : 20.5 kb/s
Count of elements : 3430
Stream size : 31.2 MiB (0%)
Title : Dutch
Language : Dutch
Default : No
Forced : No

Text #8
ID : 14
Format : PGS
Codec ID : S_HDMV/PGS
Codec ID/Info : Picture based subtitle format used on BDs/HD-DVDs
Duration : 3 h 36 min
Bit rate : 17.6 kb/s
Count of elements : 3458
Stream size : 27.2 MiB (0%)
Title : Finnish
Language : Finnish
Default : No
Forced : No

Text #9
ID : 15
Format : PGS
Codec ID : S_HDMV/PGS
Codec ID/Info : Picture based subtitle format used on BDs/HD-DVDs
Duration : 3 h 34 min
Bit rate : 24.1 kb/s
Count of elements : 4240
Stream size : 36.9 MiB (0%)
Title : French
Language : French
Default : No
Forced : No

Text #10
ID : 16
Format : PGS
Codec ID : S_HDMV/PGS
Codec ID/Info : Picture based subtitle format used on BDs/HD-DVDs
Duration : 3 h 54 min
Bit rate : 23.7 kb/s
Count of elements : 4276
Stream size : 39.7 MiB (0%)
Title : German (SDH)
Language : German
Default : No
Forced : No

Text #11
ID : 17
Format : PGS
Codec ID : S_HDMV/PGS
Codec ID/Info : Picture based subtitle format used on BDs/HD-DVDs
Duration : 3 h 33 min
Bit rate : 27.5 kb/s
Count of elements : 4080
Stream size : 41.9 MiB (0%)
Title : Greek
Language : Greek
Default : No
Forced : No

Text #12
ID : 18
Format : PGS
Codec ID : S_HDMV/PGS
Codec ID/Info : Picture based subtitle format used on BDs/HD-DVDs
Duration : 3 h 54 min
Bit rate : 13.4 kb/s
Count of elements : 4066
Stream size : 22.5 MiB (0%)
Title : Hebrew
Language : Hebrew
Default : No
Forced : No

Text #13
ID : 19
Format : PGS
Codec ID : S_HDMV/PGS
Codec ID/Info : Picture based subtitle format used on BDs/HD-DVDs
Duration : 3 h 42 min
Bit rate : 17.4 kb/s
Count of elements : 3840
Stream size : 27.8 MiB (0%)
Title : Hungarian
Language : Hungarian
Default : No
Forced : No

Text #14
ID : 20
Format : PGS
Codec ID : S_HDMV/PGS
Codec ID/Info : Picture based subtitle format used on BDs/HD-DVDs
Duration : 3 h 34 min
Bit rate : 20.0 kb/s
Count of elements : 3815
Stream size : 30.7 MiB (0%)
Title : Icelandic
Language : Icelandic
Default : No
Forced : No

Text #15
ID : 21
Format : PGS
Codec ID : S_HDMV/PGS
Codec ID/Info : Picture based subtitle format used on BDs/HD-DVDs
Duration : 3 h 53 min
Bit rate : 25.3 kb/s
Count of elements : 4605
Stream size : 42.4 MiB (0%)
Title : Italian (SDH)
Language : Italian
Default : No
Forced : No

Text #16
ID : 22
Format : PGS
Codec ID : S_HDMV/PGS
Codec ID/Info : Picture based subtitle format used on BDs/HD-DVDs
Duration : 3 h 36 min
Bit rate : 18.6 kb/s
Count of elements : 4916
Stream size : 28.8 MiB (0%)
Title : Japanese
Language : Japanese
Default : No
Forced : No

Text #17
ID : 23
Format : PGS
Codec ID : S_HDMV/PGS
Codec ID/Info : Picture based subtitle format used on BDs/HD-DVDs
Duration : 3 h 54 min
Bit rate : 14.9 kb/s
Count of elements : 4068
Stream size : 25.1 MiB (0%)
Title : Korean
Language : Korean
Default : No
Forced : No

Text #18
ID : 24
Format : PGS
Codec ID : S_HDMV/PGS
Codec ID/Info : Picture based subtitle format used on BDs/HD-DVDs
Duration : 3 h 34 min
Bit rate : 17.2 kb/s
Count of elements : 3093
Stream size : 26.3 MiB (0%)
Title : Norwegian
Language : Norwegian
Default : No
Forced : No

Text #19
ID : 25
Format : PGS
Codec ID : S_HDMV/PGS
Codec ID/Info : Picture based subtitle format used on BDs/HD-DVDs
Duration : 3 h 54 min
Bit rate : 16.2 kb/s
Count of elements : 4070
Stream size : 27.1 MiB (0%)
Title : Polish
Language : Polish
Default : No
Forced : No

Text #20
ID : 26
Format : PGS
Codec ID : S_HDMV/PGS
Codec ID/Info : Picture based subtitle format used on BDs/HD-DVDs
Duration : 3 h 54 min
Bit rate : 19.6 kb/s
Count of elements : 4072
Stream size : 32.9 MiB (0%)
Title : Portuguese (Brazilian)
Language : Portuguese
Default : No
Forced : No

Text #21
ID : 27
Format : PGS
Codec ID : S_HDMV/PGS
Codec ID/Info : Picture based subtitle format used on BDs/HD-DVDs
Duration : 3 h 42 min
Bit rate : 20.3 kb/s
Count of elements : 4068
Stream size : 32.3 MiB (0%)
Title : Portuguese
Language : Portuguese
Default : No
Forced : No

Text #22
ID : 28
Format : PGS
Codec ID : S_HDMV/PGS
Codec ID/Info : Picture based subtitle format used on BDs/HD-DVDs
Duration : 3 h 54 min
Bit rate : 19.1 kb/s
Count of elements : 4074
Stream size : 32.1 MiB (0%)
Title : Romanian
Language : Romanian
Default : No
Forced : No

Text #23
ID : 29
Format : PGS
Codec ID : S_HDMV/PGS
Codec ID/Info : Picture based subtitle format used on BDs/HD-DVDs
Duration : 3 h 41 min
Bit rate : 18.4 kb/s
Count of elements : 3962
Stream size : 29.2 MiB (0%)
Title : Russian
Language : Russian
Default : No
Forced : No

Text #24
ID : 30
Format : PGS
Codec ID : S_HDMV/PGS
Codec ID/Info : Picture based subtitle format used on BDs/HD-DVDs
Duration : 3 h 54 min
Bit rate : 18.8 kb/s
Count of elements : 4066
Stream size : 31.6 MiB (0%)
Title : Spanish (Latin American)
Language : Spanish
Default : No
Forced : No

Text #25
ID : 31
Format : PGS
Codec ID : S_HDMV/PGS
Codec ID/Info : Picture based subtitle format used on BDs/HD-DVDs
Duration : 3 h 34 min
Bit rate : 18.0 kb/s
Count of elements : 3058
Stream size : 27.7 MiB (0%)
Title : Swedish
Language : Swedish
Default : No
Forced : No

Text #26
ID : 32
Format : PGS
Codec ID : S_HDMV/PGS
Codec ID/Info : Picture based subtitle format used on BDs/HD-DVDs
Duration : 3 h 54 min
Bit rate : 16.9 kb/s
Count of elements : 4066
Stream size : 28.3 MiB (0%)
Title : Thai
Language : Thai
Default : No
Forced : No

Text #27
ID : 33
Format : PGS
Codec ID : S_HDMV/PGS
Codec ID/Info : Picture based subtitle format used on BDs/HD-DVDs
Duration : 3 h 41 min
Bit rate : 19.1 kb/s
Count of elements : 4064
Stream size : 30.4 MiB (0%)
Title : Turkish
Language : Turkish
Default : No
Forced : No

Text #28
ID : 34
Format : PGS
Codec ID : S_HDMV/PGS
Codec ID/Info : Picture based subtitle format used on BDs/HD-DVDs
Duration : 3 h 43 min
Bit rate : 6 130 b/s
Count of elements : 12178
Stream size : 9.81 MiB (0%)
Title : English (Commentary #1)
Language : English
Default : No
Forced : No

Text #29
ID : 35
Format : PGS
Codec ID : S_HDMV/PGS
Codec ID/Info : Picture based subtitle format used on BDs/HD-DVDs
Duration : 3 h 55 min
Bit rate : 66.5 kb/s
Count of elements : 8148
Stream size : 112 MiB (0%)
Title : Chinese (Commentary #1)
Language : Chinese
Default : No
Forced : No

Text #30
ID : 36
Format : PGS
Codec ID : S_HDMV/PGS
Codec ID/Info : Picture based subtitle format used on BDs/HD-DVDs
Duration : 3 h 55 min
Bit rate : 62.2 kb/s
Count of elements : 7186
Stream size : 105 MiB (0%)
Title : Dutch (Commentary #1)
Language : Dutch
Default : No
Forced : No

Text #31
ID : 37
Format : PGS
Codec ID : S_HDMV/PGS
Codec ID/Info : Picture based subtitle format used on BDs/HD-DVDs
Duration : 3 h 55 min
Bit rate : 67.3 kb/s
Count of elements : 7217
Stream size : 113 MiB (0%)
Title : French (Commentary #1)
Language : French
Default : No
Forced : No

Text #32
ID : 38
Format : PGS
Codec ID : S_HDMV/PGS
Codec ID/Info : Picture based subtitle format used on BDs/HD-DVDs
Duration : 3 h 43 min
Bit rate : 78.8 kb/s
Count of elements : 7340
Stream size : 126 MiB (1%)
Title : Italian (Commentary #1)
Language : Italian
Default : No
Forced : No

Text #33
ID : 39
Format : PGS
Codec ID : S_HDMV/PGS
Codec ID/Info : Picture based subtitle format used on BDs/HD-DVDs
Duration : 3 h 43 min
Bit rate : 43.0 kb/s
Count of elements : 5234
Stream size : 68.8 MiB (0%)
Title : Japanese (Commentary #1)
Language : Japanese
Default : No
Forced : No

Text #34
ID : 40
Format : PGS
Codec ID : S_HDMV/PGS
Codec ID/Info : Picture based subtitle format used on BDs/HD-DVDs
Duration : 3 h 55 min
Bit rate : 63.4 kb/s
Count of elements : 8305
Stream size : 107 MiB (0%)
Title : Korean (Commentary #1)
Language : Korean
Default : No
Forced : No

Text #35
ID : 41
Format : PGS
Codec ID : S_HDMV/PGS
Codec ID/Info : Picture based subtitle format used on BDs/HD-DVDs
Duration : 3 h 40 min
Bit rate : 7 316 b/s
Count of elements : 12210
Stream size : 11.5 MiB (0%)
Title : English (Commentary #2)
Language : English
Default : No
Forced : No

Text #36
ID : 42
Format : PGS
Codec ID : S_HDMV/PGS
Codec ID/Info : Picture based subtitle format used on BDs/HD-DVDs
Duration : 3 h 55 min
Bit rate : 62.4 kb/s
Count of elements : 7798
Stream size : 105 MiB (0%)
Title : Chinese (Commentary #2)
Language : Chinese
Default : No
Forced : No

Text #37
ID : 43
Format : PGS
Codec ID : S_HDMV/PGS
Codec ID/Info : Picture based subtitle format used on BDs/HD-DVDs
Duration : 3 h 55 min
Bit rate : 59.5 kb/s
Count of elements : 6686
Stream size : 100 MiB (0%)
Title : Dutch (Commentary #2)
Language : Dutch
Default : No
Forced : No

Text #38
ID : 44
Format : PGS
Codec ID : S_HDMV/PGS
Codec ID/Info : Picture based subtitle format used on BDs/HD-DVDs
Duration : 3 h 55 min
Bit rate : 66.9 kb/s
Count of elements : 7125
Stream size : 112 MiB (0%)
Title : French (Commentary #2)
Language : French
Default : No
Forced : No

Text #39
ID : 45
Format : PGS
Codec ID : S_HDMV/PGS
Codec ID/Info : Picture based subtitle format used on BDs/HD-DVDs
Duration : 3 h 40 min
Bit rate : 79.5 kb/s
Count of elements : 7127
Stream size : 125 MiB (1%)
Title : Italian (Commentary #2)
Language : Italian
Default : No
Forced : No

Text #40
ID : 46
Format : PGS
Codec ID : S_HDMV/PGS
Codec ID/Info : Picture based subtitle format used on BDs/HD-DVDs
Duration : 3 h 40 min
Bit rate : 41.0 kb/s
Count of elements : 4590
Stream size : 64.6 MiB (0%)
Title : Japanese (Commentary #2)
Language : Japanese
Default : No
Forced : No

Text #41
ID : 47
Format : PGS
Codec ID : S_HDMV/PGS
Codec ID/Info : Picture based subtitle format used on BDs/HD-DVDs
Duration : 3 h 55 min
Bit rate : 60.6 kb/s
Count of elements : 8072
Stream size : 102 MiB (0%)
Title : Korean (Commentary #2)
Language : Korean
Default : No
Forced : No

Text #42
ID : 48
Format : PGS
Codec ID : S_HDMV/PGS
Codec ID/Info : Picture based subtitle format used on BDs/HD-DVDs
Duration : 3 h 45 min
Bit rate : 4 796 b/s
Count of elements : 9416
Stream size : 7.74 MiB (0%)
Title : English (Commentary #3)
Language : English
Default : No
Forced : No

Text #43
ID : 49
Format : PGS
Codec ID : S_HDMV/PGS
Codec ID/Info : Picture based subtitle format used on BDs/HD-DVDs
Duration : 3 h 55 min
Bit rate : 72.7 kb/s
Count of elements : 8426
Stream size : 122 MiB (1%)
Title : Chinese (Commentary #3)
Language : Chinese
Default : No
Forced : No

Text #44
ID : 50
Format : PGS
Codec ID : S_HDMV/PGS
Codec ID/Info : Picture based subtitle format used on BDs/HD-DVDs
Duration : 3 h 55 min
Bit rate : 56.2 kb/s
Count of elements : 6624
Stream size : 94.6 MiB (0%)
Title : Dutch (Commentary #3)
Language : Dutch
Default : No
Forced : No

Text #45
ID : 51
Format : PGS
Codec ID : S_HDMV/PGS
Codec ID/Info : Picture based subtitle format used on BDs/HD-DVDs
Duration : 3 h 55 min
Bit rate : 65.9 kb/s
Count of elements : 7129
Stream size : 111 MiB (0%)
Title : French (Commentary #3)
Language : French
Default : No
Forced : No

Text #46
ID : 52
Format : PGS
Codec ID : S_HDMV/PGS
Codec ID/Info : Picture based subtitle format used on BDs/HD-DVDs
Duration : 3 h 45 min
Bit rate : 72.4 kb/s
Count of elements : 7122
Stream size : 117 MiB (1%)
Title : Italian (Commentary #3)
Language : Italian
Default : No
Forced : No

Text #47
ID : 53
Format : PGS
Codec ID : S_HDMV/PGS
Codec ID/Info : Picture based subtitle format used on BDs/HD-DVDs
Duration : 3 h 45 min
Bit rate : 41.9 kb/s
Count of elements : 4714
Stream size : 67.6 MiB (0%)
Title : Japanese (Commentary #3)
Language : Japanese
Default : No
Forced : No

Text #48
ID : 54
Format : PGS
Codec ID : S_HDMV/PGS
Codec ID/Info : Picture based subtitle format used on BDs/HD-DVDs
Duration : 3 h 55 min
Bit rate : 54.7 kb/s
Count of elements : 7924
Stream size : 92.1 MiB (0%)
Title : Korean (Commentary #3)
Language : Korean
Default : No
Forced : No

Text #49
ID : 55
Format : PGS
Codec ID : S_HDMV/PGS
Codec ID/Info : Picture based subtitle format used on BDs/HD-DVDs
Duration : 3 h 41 min
Bit rate : 6 865 b/s
Count of elements : 16148
Stream size : 10.9 MiB (0%)
Title : English (Commentary #4)
Language : English
Default : No
Forced : No

Text #50
ID : 56
Format : PGS
Codec ID : S_HDMV/PGS
Codec ID/Info : Picture based subtitle format used on BDs/HD-DVDs
Duration : 3 h 55 min
Bit rate : 73.7 kb/s
Count of elements : 8396
Stream size : 124 MiB (1%)
Title : Chinese (Commentary #4)
Language : Chinese
Default : No
Forced : No

Text #51
ID : 57
Format : PGS
Codec ID : S_HDMV/PGS
Codec ID/Info : Picture based subtitle format used on BDs/HD-DVDs
Duration : 3 h 55 min
Bit rate : 54.9 kb/s
Count of elements : 7185
Stream size : 92.4 MiB (0%)
Title : Dutch (Commentary #4)
Language : Dutch
Default : No
Forced : No

Text #52
ID : 58
Format : PGS
Codec ID : S_HDMV/PGS
Codec ID/Info : Picture based subtitle format used on BDs/HD-DVDs
Duration : 3 h 55 min
Bit rate : 63.6 kb/s
Count of elements : 6997
Stream size : 107 MiB (0%)
Title : French (Commentary #4)
Language : French
Default : No
Forced : No

Text #53
ID : 59
Format : PGS
Codec ID : S_HDMV/PGS
Codec ID/Info : Picture based subtitle format used on BDs/HD-DVDs
Duration : 3 h 41 min
Bit rate : 74.7 kb/s
Count of elements : 7277
Stream size : 118 MiB (1%)
Title : Italian (Commentary #4)
Language : Italian
Default : No
Forced : No

Text #54
ID : 60
Format : PGS
Codec ID : S_HDMV/PGS
Codec ID/Info : Picture based subtitle format used on BDs/HD-DVDs
Duration : 3 h 41 min
Bit rate : 43.7 kb/s
Count of elements : 5382
Stream size : 69.2 MiB (0%)
Title : Japanese (Commentary #4)
Language : Japanese
Default : No
Forced : No

Text #55
ID : 61
Format : PGS
Codec ID : S_HDMV/PGS
Codec ID/Info : Picture based subtitle format used on BDs/HD-DVDs
Duration : 3 h 55 min
Bit rate : 63.7 kb/s
Count of elements : 8510
Stream size : 107 MiB (0%)
Title : Korean (Commentary #4)
Language : Korean
Default : No
Forced : No

Menu
00:00:00.000 : : 1. The Foundations of Stone
00:04:08.748 : : 2. Elven Rope
00:06:10.829 : : 3. The Taming of Smeagol
00:14:44.967 : : 4. The Uruk-hai
00:17:06.609 : : 5. The Three Hunters
00:19:17.948 : : 6. The Burning of the Westfold
00:23:07.094 : : 7. Massacre at the Fords of Isen
00:23:58.312 : : 8. The Banishment of omer
00:27:09.044 : : 9. On the Trail of the Uruk-hai
00:28:03.181 : :10. Night Camp at Fangorn
00:31:38.230 : :11. The Riders of Rohan
00:35:45.518 : :12. The Fate of Merry and Pippin
00:38:17.879 : :13. Treebeard
00:41:47.797 : :14. The Passage of the Marshes
00:50:49.755 : :15. The White Rider
00:58:19.413 : :16. The Song of the Entwives
01:00:40.178 : :17. The Heir of Numenor
01:02:48.306 : :18. The Black Gate is Closed
01:08:05.999 : :19. Ent Draft
01:12:41.732 : :20. The King of the Golden Hall
01:24:17.344 : :21. The Funeral of Theodred
01:25:41.636 : :22. Simbelmyne on the Burial Mounds
01:27:34.332 : :23. The King's Decision
01:30:45.523 : :24. Brego
01:32:30.587 : :25. The Ring of Barahir
01:34:31.040 : :26. A Daughter of Kings
01:35:57.043 : :27. Exodus from Edoras
01:37:02.316 : :28. The Forests of Ithilien
01:38:43.960 : :29. Gollum and Smeagol
01:41:14.819 : :30. Of Herbs and Stewed Rabbit
01:46:34.208 : :31. Dwarf Women
01:47:16.000 : :32. One of the Dunedain
01:49:45.858 : :33. The Evenstar
01:54:52.414 : :34. The Wolves of Isengard
02:01:30.603 : :35. Helm's Deep
02:04:10.722 : :36. Isengard Unleashed
02:06:47.170 : :37. The Grace of the Valar
02:08:24.726 : :38. Arwen's Fate
02:12:07.490 : :39. The Story Foreseen from Lorien
02:14:33.469 : :40. The Window on the West
02:18:23.073 : :41. Sons of the Steward
02:23:02.644 : :42. The Forbidden Pool
02:30:24.335 : :43. Aragorn's Return
02:35:57.585 : :44. Entmoot
02:37:17.457 : :45. The Glittering Caves
02:40:25.728 : :46. "Where Is the Horse and the Rider?"
02:42:10.458 : :47. "Don't Be Hasty, Master Meriadoc!"
02:43:01.133 : :48. The Host of the Eldar
02:46:35.222 : :49. The Batter of the Hornburg
02:52:57.604 : :50. Old Entish
02:54:34.659 : :51. The Breach of the Deeping Wall
02:57:59.781 : :52. The Entmoot Decides
02:59:44.928 : :53. The Retreat to the Hornburg
03:05:47.415 : :54. Master Peregrin's Plan
03:07:12.500 : :55. Osgiliath
03:07:47.243 : :56. The Last March of the Ents
03:10:16.767 : :57. The Nazgul Attack
03:12:48.752 : :58. Forth Eorlingas
03:17:27.239 : :59. The Flooding of Isengard
03:19:53.593 : :60. The Tales That Really Mattered...
03:24:38.878 : :61. Fangorn Comes to Helm's Deep
03:25:31.431 : :62. The Final Tally
03:26:11.971 : :63. Flotsam and Jetsam
03:28:15.762 : :64. Farewell to Faramir
03:30:45.620 : :65. "The Battle for Middle-Earth is About to Begin"
03:32:25.303 : :66. Gollum's Plan
03:34:49.447 : :67. End Credits
03:43:45.732 : :67. Fan Club Credits

Source Information


General
Unique ID : 214342844559610528602118094289805956863 (0xA140EE2630E90850CC1AE2F3870AD6FF)
Complete name : The.Lord.of.the.Rings.The.Two.Towers.2002.Extended.Cut.BluRay.1080p.DTS-HD.MA.6.1.AVC.REMUX-FraMeSToR.mkv
Format : Matroska
Format version : Version 4
File size : 61.0 GiB
Duration : 3 h 55 min
Overall bit rate mode : Variable
Overall bit rate : 37.1 Mb/s
Encoded date : UTC 2018-02-18 13:30:08
Writing application : mkvmerge v20.0.0 ('I Am The Sun') 64-bit
Writing library : libebml v1.3.5 + libmatroska v1.4.8

Video
ID : 1
Format : AVC
Format/Info : Advanced Video Codec
Format profile : [email protected]
Format settings : CABAC / 2 Ref Frames
Format settings, CABAC : Yes
Format settings, Reference : 2 frames
Format settings, GOP : M=1, N=10
Codec ID : V_MPEG4/ISO/AVC
Duration : 3 h 55 min
Bit rate mode : Variable
Bit rate : 29.9 Mb/s
Width : 1 920 pixels
Height : 1 080 pixels
Display aspect ratio : 16:9
Frame rate mode : Constant
Frame rate : 23.976 (24000/1001) FPS
Color space : YUV
Chroma subsampling : 4:2:0
Bit depth : 8 bits
Scan type : Progressive
Bits/(Pixel*Frame) : 0.601
Stream size : 49.2 GiB (81%)
Default : Yes
Forced : No

Audio #1
ID : 2
Format : DTS ES XXCH XLL
Format/Info : Digital Theater Systems
Commercial name : DTS-HD Master Audio
Codec ID : A_DTS
Duration : 3 h 55 min
Bit rate mode : Variable
Bit rate : 4 479 kb/s
Channel(s) : 7 channels
Channel layout : C L R Ls Rs LFE Cb
Sampling rate : 48.0 kHz
Frame rate : 93.750 FPS (512 SPF)
Bit depth : 24 bits
Compression mode : Lossless
Stream size : 7.37 GiB (12%)
Language : English
Default : Yes
Forced : No

Audio #2
ID : 3
Format : AC-3
Format/Info : Audio Coding 3
Commercial name : Dolby Digital
Codec ID : A_AC3
Duration : 3 h 55 min
Bit rate mode : Constant
Bit rate : 192 kb/s
Channel(s) : 2 channels
Channel layout : L R
Sampling rate : 48.0 kHz
Frame rate : 31.250 FPS (1536 SPF)
Compression mode : Lossy
Stream size : 323 MiB (1%)
Title : Commentary Director and Writers by Peter Jackson, Fran Walsh and Philippa Boyens
Language : English
Service kind : Complete Main
Default : No
Forced : No

Audio #3
ID : 4
Format : AC-3
Format/Info : Audio Coding 3
Commercial name : Dolby Digital
Codec ID : A_AC3
Duration : 3 h 55 min
Bit rate mode : Constant
Bit rate : 192 kb/s
Channel(s) : 2 channels
Channel layout : L R
Sampling rate : 48.0 kHz
Frame rate : 31.250 FPS (1536 SPF)
Compression mode : Lossy
Stream size : 323 MiB (1%)
Title : Commentary Design Team by Grant Major, Richard Taylor, Alan Lee, John Howe, Dan Hennah, Chris Hennah and Tania Rodger
Language : English
Service kind : Complete Main
Default : No
Forced : No

Audio #4
ID : 5
Format : AC-3
Format/Info : Audio Coding 3
Commercial name : Dolby Digital
Codec ID : A_AC3
Duration : 3 h 55 min
Bit rate mode : Constant
Bit rate : 192 kb/s
Channel(s) : 2 channels
Channel layout : L R
Sampling rate : 48.0 kHz
Frame rate : 31.250 FPS (1536 SPF)
Compression mode : Lossy
Stream size : 323 MiB (1%)
Title : Commentary Production Team by Mike Horton, Jabez Olssen, Joe Letteri, Barrie Osborne, Mark Ordesky, Andrew Lesnie, Rick Porras, Howard Shore, Jim Rygiel, Randy Cook, Ethan van der Ryn, Mike Hopkins, Christian Rivers, Brian Vant Hul and Alex Funk
Language : English
Service kind : Complete Main
Default : No
Forced : No

Audio #5
ID : 6
Format : AC-3
Format/Info : Audio Coding 3
Commercial name : Dolby Digital
Codec ID : A_AC3
Duration : 3 h 55 min
Bit rate mode : Constant
Bit rate : 192 kb/s
Channel(s) : 2 channels
Channel layout : L R
Sampling rate : 48.0 kHz
Frame rate : 31.250 FPS (1536 SPF)
Compression mode : Lossy
Stream size : 323 MiB (1%)
Title : Commentary Cast by Elijah Wood, Sean Astin, Andy Serkis, John Rhys-Davies, Billy Boyd, Dominic Monaghan, Orlando Bloom, Christopher Lee, Sean Bean, Bernard Hill, Miranda Otto, David Wenham, Brad Dourif, Karl Urban, John Noble and Craig Parker
Language : English
Service kind : Complete Main
Default : No
Forced : No

Text #1
ID : 7
Format : PGS
Codec ID : S_HDMV/PGS
Codec ID/Info : Picture based subtitle format used on BDs/HD-DVDs
Duration : 3 h 3 min
Bit rate : 573 b/s
Count of elements : 100
Stream size : 769 KiB (0%)
Title : English (Forced)
Language : English
Default : No
Forced : Yes

Text #2
ID : 8
Format : PGS
Codec ID : S_HDMV/PGS
Codec ID/Info : Picture based subtitle format used on BDs/HD-DVDs
Duration : 3 h 54 min
Bit rate : 20.0 kb/s
Count of elements : 4386
Stream size : 33.6 MiB (0%)
Title : English (SDH)
Language : English
Default : No
Forced : No

Text #3
ID : 9
Format : PGS
Codec ID : S_HDMV/PGS
Codec ID/Info : Picture based subtitle format used on BDs/HD-DVDs
Duration : 3 h 54 min
Bit rate : 16.3 kb/s
Count of elements : 4070
Stream size : 27.4 MiB (0%)
Title : Chinese (Traditional)
Language : Chinese
Default : No
Forced : No

Text #4
ID : 10
Format : PGS
Codec ID : S_HDMV/PGS
Codec ID/Info : Picture based subtitle format used on BDs/HD-DVDs
Duration : 3 h 54 min
Bit rate : 15.2 kb/s
Count of elements : 4070
Stream size : 25.6 MiB (0%)
Title : Chinese (Cantonese)
Language : Chinese
Default : No
Forced : No

Text #5
ID : 11
Format : PGS
Codec ID : S_HDMV/PGS
Codec ID/Info : Picture based subtitle format used on BDs/HD-DVDs
Duration : 3 h 54 min
Bit rate : 16.4 kb/s
Count of elements : 4014
Stream size : 27.6 MiB (0%)
Title : Czech
Language : Czech
Default : No
Forced : No

Text #6
ID : 12
Format : PGS
Codec ID : S_HDMV/PGS
Codec ID/Info : Picture based subtitle format used on BDs/HD-DVDs
Duration : 3 h 34 min
Bit rate : 17.1 kb/s
Count of elements : 3153
Stream size : 26.2 MiB (0%)
Title : Danish
Language : Danish
Default : No
Forced : No

Text #7
ID : 13
Format : PGS
Codec ID : S_HDMV/PGS
Codec ID/Info : Picture based subtitle format used on BDs/HD-DVDs
Duration : 3 h 33 min
Bit rate : 20.5 kb/s
Count of elements : 3430
Stream size : 31.2 MiB (0%)
Title : Dutch
Language : Dutch
Default : No
Forced : No

Text #8
ID : 14
Format : PGS
Codec ID : S_HDMV/PGS
Codec ID/Info : Picture based subtitle format used on BDs/HD-DVDs
Duration : 3 h 36 min
Bit rate : 17.6 kb/s
Count of elements : 3458
Stream size : 27.2 MiB (0%)
Title : Finnish
Language : Finnish
Default : No
Forced : No

Text #9
ID : 15
Format : PGS
Codec ID : S_HDMV/PGS
Codec ID/Info : Picture based subtitle format used on BDs/HD-DVDs
Duration : 3 h 34 min
Bit rate : 24.1 kb/s
Count of elements : 4240
Stream size : 36.9 MiB (0%)
Title : French
Language : French
Default : No
Forced : No

Text #10
ID : 16
Format : PGS
Codec ID : S_HDMV/PGS
Codec ID/Info : Picture based subtitle format used on BDs/HD-DVDs
Duration : 3 h 54 min
Bit rate : 23.7 kb/s
Count of elements : 4276
Stream size : 39.7 MiB (0%)
Title : German (SDH)
Language : German
Default : No
Forced : No

Text #11
ID : 17
Format : PGS
Codec ID : S_HDMV/PGS
Codec ID/Info : Picture based subtitle format used on BDs/HD-DVDs
Duration : 3 h 33 min
Bit rate : 27.5 kb/s
Count of elements : 4080
Stream size : 41.9 MiB (0%)
Title : Greek
Language : Greek
Default : No
Forced : No

Text #12
ID : 18
Format : PGS
Codec ID : S_HDMV/PGS
Codec ID/Info : Picture based subtitle format used on BDs/HD-DVDs
Duration : 3 h 54 min
Bit rate : 13.4 kb/s
Count of elements : 4066
Stream size : 22.5 MiB (0%)
Title : Hebrew
Language : Hebrew
Default : No
Forced : No

Text #13
ID : 19
Format : PGS
Codec ID : S_HDMV/PGS
Codec ID/Info : Picture based subtitle format used on BDs/HD-DVDs
Duration : 3 h 42 min
Bit rate : 17.4 kb/s
Count of elements : 3840
Stream size : 27.8 MiB (0%)
Title : Hungarian
Language : Hungarian
Default : No
Forced : No

Text #14
ID : 20
Format : PGS
Codec ID : S_HDMV/PGS
Codec ID/Info : Picture based subtitle format used on BDs/HD-DVDs
Duration : 3 h 34 min
Bit rate : 20.0 kb/s
Count of elements : 3815
Stream size : 30.7 MiB (0%)
Title : Icelandic
Language : Icelandic
Default : No
Forced : No

Text #15
ID : 21
Format : PGS
Codec ID : S_HDMV/PGS
Codec ID/Info : Picture based subtitle format used on BDs/HD-DVDs
Duration : 3 h 53 min
Bit rate : 25.3 kb/s
Count of elements : 4605
Stream size : 42.4 MiB (0%)
Title : Italian (SDH)
Language : Italian
Default : No
Forced : No

Text #16
ID : 22
Format : PGS
Codec ID : S_HDMV/PGS
Codec ID/Info : Picture based subtitle format used on BDs/HD-DVDs
Duration : 3 h 36 min
Bit rate : 18.6 kb/s
Count of elements : 4916
Stream size : 28.8 MiB (0%)
Title : Japanese
Language : Japanese
Default : No
Forced : No

Text #17
ID : 23
Format : PGS
Codec ID : S_HDMV/PGS
Codec ID/Info : Picture based subtitle format used on BDs/HD-DVDs
Duration : 3 h 54 min
Bit rate : 14.9 kb/s
Count of elements : 4068
Stream size : 25.1 MiB (0%)
Title : Korean
Language : Korean
Default : No
Forced : No

Text #18
ID : 24
Format : PGS
Codec ID : S_HDMV/PGS
Codec ID/Info : Picture based subtitle format used on BDs/HD-DVDs
Duration : 3 h 34 min
Bit rate : 17.2 kb/s
Count of elements : 3093
Stream size : 26.3 MiB (0%)
Title : Norwegian
Language : Norwegian
Default : No
Forced : No

Text #19
ID : 25
Format : PGS
Codec ID : S_HDMV/PGS
Codec ID/Info : Picture based subtitle format used on BDs/HD-DVDs
Duration : 3 h 54 min
Bit rate : 16.2 kb/s
Count of elements : 4070
Stream size : 27.1 MiB (0%)
Title : Polish
Language : Polish
Default : No
Forced : No

Text #20
ID : 26
Format : PGS
Codec ID : S_HDMV/PGS
Codec ID/Info : Picture based subtitle format used on BDs/HD-DVDs
Duration : 3 h 54 min
Bit rate : 19.6 kb/s
Count of elements : 4072
Stream size : 32.9 MiB (0%)
Title : Portuguese (Brazilian)
Language : Portuguese
Default : No
Forced : No

Text #21
ID : 27
Format : PGS
Codec ID : S_HDMV/PGS
Codec ID/Info : Picture based subtitle format used on BDs/HD-DVDs
Duration : 3 h 42 min
Bit rate : 20.3 kb/s
Count of elements : 4068
Stream size : 32.3 MiB (0%)
Title : Portuguese
Language : Portuguese
Default : No
Forced : No

Text #22
ID : 28
Format : PGS
Codec ID : S_HDMV/PGS
Codec ID/Info : Picture based subtitle format used on BDs/HD-DVDs
Duration : 3 h 54 min
Bit rate : 19.1 kb/s
Count of elements : 4074
Stream size : 32.1 MiB (0%)
Title : Romanian
Language : Romanian
Default : No
Forced : No

Text #23
ID : 29
Format : PGS
Codec ID : S_HDMV/PGS
Codec ID/Info : Picture based subtitle format used on BDs/HD-DVDs
Duration : 3 h 41 min
Bit rate : 18.4 kb/s
Count of elements : 3962
Stream size : 29.2 MiB (0%)
Title : Russian
Language : Russian
Default : No
Forced : No

Text #24
ID : 30
Format : PGS
Codec ID : S_HDMV/PGS
Codec ID/Info : Picture based subtitle format used on BDs/HD-DVDs
Duration : 3 h 54 min
Bit rate : 18.8 kb/s
Count of elements : 4066
Stream size : 31.6 MiB (0%)
Title : Spanish (Latin American)
Language : Spanish
Default : No
Forced : No

Text #25
ID : 31
Format : PGS
Codec ID : S_HDMV/PGS
Codec ID/Info : Picture based subtitle format used on BDs/HD-DVDs
Duration : 3 h 34 min
Bit rate : 18.0 kb/s
Count of elements : 3058
Stream size : 27.7 MiB (0%)
Title : Swedish
Language : Swedish
Default : No
Forced : No

Text #26
ID : 32
Format : PGS
Codec ID : S_HDMV/PGS
Codec ID/Info : Picture based subtitle format used on BDs/HD-DVDs
Duration : 3 h 54 min
Bit rate : 16.9 kb/s
Count of elements : 4066
Stream size : 28.3 MiB (0%)
Title : Thai
Language : Thai
Default : No
Forced : No

Text #27
ID : 33
Format : PGS
Codec ID : S_HDMV/PGS
Codec ID/Info : Picture based subtitle format used on BDs/HD-DVDs
Duration : 3 h 41 min
Bit rate : 19.1 kb/s
Count of elements : 4064
Stream size : 30.4 MiB (0%)
Title : Turkish
Language : Turkish
Default : No
Forced : No

Text #28
ID : 34
Format : PGS
Codec ID : S_HDMV/PGS
Codec ID/Info : Picture based subtitle format used on BDs/HD-DVDs
Duration : 3 h 43 min
Bit rate : 6 130 b/s
Count of elements : 12178
Stream size : 9.81 MiB (0%)
Title : English (Commentary #1)
Language : English
Default : No
Forced : No

Text #29
ID : 35
Format : PGS
Codec ID : S_HDMV/PGS
Codec ID/Info : Picture based subtitle format used on BDs/HD-DVDs
Duration : 3 h 55 min
Bit rate : 66.5 kb/s
Count of elements : 8148
Stream size : 112 MiB (0%)
Title : Chinese (Commentary #1)
Language : Chinese
Default : No
Forced : No

Text #30
ID : 36
Format : PGS
Codec ID : S_HDMV/PGS
Codec ID/Info : Picture based subtitle format used on BDs/HD-DVDs
Duration : 3 h 55 min
Bit rate : 62.2 kb/s
Count of elements : 7186
Stream size : 105 MiB (0%)
Title : Dutch (Commentary #1)
Language : Dutch
Default : No
Forced : No

Text #31
ID : 37
Format : PGS
Codec ID : S_HDMV/PGS
Codec ID/Info : Picture based subtitle format used on BDs/HD-DVDs
Duration : 3 h 55 min
Bit rate : 67.3 kb/s
Count of elements : 7217
Stream size : 113 MiB (0%)
Title : French (Commentary #1)
Language : French
Default : No
Forced : No

Text #32
ID : 38
Format : PGS
Codec ID : S_HDMV/PGS
Codec ID/Info : Picture based subtitle format used on BDs/HD-DVDs
Duration : 3 h 43 min
Bit rate : 78.8 kb/s
Count of elements : 7340
Stream size : 126 MiB (0%)
Title : Italian (Commentary #1)
Language : Italian
Default : No
Forced : No

Text #33
ID : 39
Format : PGS
Codec ID : S_HDMV/PGS
Codec ID/Info : Picture based subtitle format used on BDs/HD-DVDs
Duration : 3 h 43 min
Bit rate : 43.0 kb/s
Count of elements : 5234
Stream size : 68.8 MiB (0%)
Title : Japanese (Commentary #1)
Language

Downloads: 144
Category: Movies/HEVC/x265
Size: 22.6 GB
Show Files »
files
Added: 2020-06-22 11:45:08
Language: English
Title: The Lord of the Rings: The Two Towe...
Rating: 81
Genres: ActionAdventureFantasy
Year: 2002
Summery: Frodo and Sam are trekking to Mordor to destroy the One Ring of Power while Gimli, Legolas and Aragorn search for the orc-captured Merry and Pippin. All along, nefarious wizard Saruman awaits the Fellowship members at the Orthanc Tower in Isengard.
Peers: Seeders : 30 , Leechers : 17
Tags: Adventure Drama Fantasy 1080p 10bit x265 HEVC 
Release name: The Lord of the Rings The Two Towers (2002) Extended (1080p BDRip x265 10bit DTS-HD MA 6.1 - r0b0t) [TAoE].mkv
Trackers:

udp://tracker.coppersurfer.tk:6969/announce

udp://tracker.internetwarriors.net:1337/announce

http://tracker.opentrackr.org:1337/announce

udp://denis.stalker.upeer.me:6969/announce

udp://tracker.internetwarriors.net:1337

udp://9.rarbg.me:2720/announce

udp://explodie.org:6969/announce

udp://tracker.cyberia.is:6969/announce

udp://thetracker.org/announce

udp://open.demonii.si:1337/announce





By using this site you agree to and accept our user agreement. If you havent read the user agreement please do so here