rarbg torrents
Catalog Top 10

Home
Movies
XXX
TV Shows
Games
Music
Anime
Apps
Doc
Other
Non XXX

The.Noite.com.Danilo.Gentili.2020.03.12.720p.WEB.x264-Skylane77.mp4

Torrent: The.Noite.com.Danilo.Gentili.2020.03.12.720p.WEB.x264-Skylane77.mp4
VPN:
Downloading torrents is getting riskier every day. Use a VPN to make yourself hidden while downloading torrents.
By using a VPN , your ISP and Government Agencies will not be able to spy on you, neither would they be able to track your online activity!
Description:

Ivo Holanda

Entrevista com o humorista Ivo Holanda de Barros, conhecido como o "Rei das Pegadinhas"; Ivo Holanda e os Malas da Alegria cantam "Alô, Alô, Galera".



--
Video
ID: 1
Format: AVC
Format/Info: Advanced Video Codec
Format profile: [email protected]
Format settings: CABAC / 9 Ref Frames
Format settings, CABAC: Yes
Format settings, Reference frames: 9 frames
Codec ID: avc1
Codec ID/Info: Advanced Video Coding
Duration: 50 min 4 s
Bit rate: 1 501 kb/s
Width: 1 280 pixels
Height: 720 pixels
Display aspect ratio: 16:9
Frame rate mode: Variable
Frame rate: 29.970 FPS
Minimum frame rate: 15.000 FPS
Maximum frame rate: 30.000 FPS
Color space: YUV
Chroma subsampling: 4:2:0
Bit depth: 8 bits
Scan type: Progressive
Bits/(Pixel*Frame): 0.054
Stream size: 538 MiB (92%)
Writing library: x264 core 159 r2991 1771b55
Encoding settings: cabac=1 / ref=9 / deblock=1:0:0 / analyse=0x3:0x133 / me=umh / subme=10 / psy=1 / psy_rd=1.00:0.00 / mixed_ref=1 / me_range=24 / chroma_me=1 / trellis=2 / 8x8dct=1 / cqm=0 / deadzone=21,11 / fast_pskip=1 / chroma_qp_offset=-2 / threads=12 / lookahead_threads=2 / sliced_threads=0 / nr=0 / decimate=1 / interlaced=0 / bluray_compat=0 / constrained_intra=0 / bframes=8 / b_pyramid=2 / b_adapt=2 / b_bias=0 / direct=3 / weightb=1 / open_gop=0 / weightp=2 / keyint=250 / keyint_min=25 / scenecut=40 / intra_refresh=0 / rc_lookahead=60 / rc=crf / mbtree=1 / crf=25.0 / qcomp=0.60 / qpmin=0 / qpmax=69 / qpstep=4 / ip_ratio=1.40 / aq=1:1.00
Codec configuration box: avcC

Audio
ID: 2
Format: AAC LC
Format/Info: Advanced Audio Codec Low Complexity
Codec ID: mp4a-40-2
Duration: 50 min 4 s
Bit rate mode: Constant
Bit rate: 128 kb/s
Channel(s): 2 channels
Channel layout: L R
Sampling rate: 48.0 kHz
Frame rate: 46.875 FPS (1024 SPF)
Compression mode: Lossy
Stream size: 46.0 MiB (8%)
Default: Yes
Alternate group: 1

Downloads: 0
Category: TV/HD
Size: 586.7 MB
Show Files »
files
Added: 2020-06-25 11:36:23
Language: Portuguese
Peers: Seeders : 2 , Leechers : 1
Release name: The.Noite.com.Danilo.Gentili.2020.03.12.720p.WEB.x264-Skylane77.mp4
Trackers:

udp://9.rarbg.me:2710

udp://9.rarbg.to:2710

udp://exodus.desync.com:6969

udp://tracker.coppersurfer.tk:6969

udp://tracker.leechers-paradise.org:6969

udp://tracker.opentrackr.org:1337

udp://tracker.pirateparty.gr:6969





By using this site you agree to and accept our user agreement. If you havent read the user agreement please do so here